<?xml version="1.0" standalone="no"?>
<!DOCTYPE svg PUBLIC "-//W3C//DTD SVG 1.1//EN" "http://www.w3.org/Graphics/SVG/1.1/DTD/svg11.dtd" >
<svg xmlns="http://www.w3.org/2000/svg">
<metadata>Generated by IcoMoon</metadata>
<defs>
<font id="icomoon" horiz-adv-x="1024">
<font-face units-per-em="1024" ascent="960" descent="-64" />
<missing-glyph horiz-adv-x="1024" />
<glyph unicode="&#x20;" horiz-adv-x="512" d="" />
<glyph unicode="&#xe900;" glyph-name="about" d="M1023.97 140.967v0c0.008-8.457-3.346-16.571-9.324-22.554s-14.088-9.345-22.546-9.345h-237.543c18.165 3.997 31.115 20.077 31.146 38.677v0 0c0 0 0 144.586-105.819 197.119-21.78 12.4-45.795 20.374-70.666 23.465l0.602 62.654c-20.086 21.084-31.626 48.876-32.381 77.986-15.453-4.458-20.543 18.073-21.447 32.472-0.843 13.886-9.037 57.232 9.91 53.316-3.826 22.758-5.59 45.814-5.271 68.889 10.653 59.889 62.914 103.384 123.741 102.987 84.884-3.675 118.5-54.4 123.229-102.927 0.23-23.072-1.615-46.118-5.512-68.859 18.856 3.856 10.663-39.43 9.76-53.316-0.843-14.368-6.024-36.869-21.477-32.411-0.749-29.073-12.304-56.824-32.411-77.835l0.572-62.533c0 0 15.633-9.037 81.571-36.146s45.183-6.898 99.011-33.556c84.884-42.171 84.884-158.141 84.884-158.141v0l-0.030 0.060zM545.601 354.834c72.474-30.122 49.732-7.561 108.801-36.869 93.378-46.358 93.378-173.835 93.378-173.835v0 0c0.016-9.314-3.681-18.251-10.273-24.832s-15.535-10.262-24.849-10.23c-110.772-36.708-226.32-57.005-342.97-60.244-113.943 3.083-226.763 23.394-334.626 60.244-19.336-0.017-35.029 15.636-35.062 34.972v0 0c0 0 0 127.477 93.378 173.835 59.039 29.309 36.146 5.512 108.801 35.544 30.664 11.69 60.608 25.188 89.673 40.424l0.693 69.070c-22.079 23.178-34.767 53.728-35.604 85.727-16.989-4.91-22.592 19.911-23.586 35.695-0.934 15.242-9.85 62.925 10.874 58.618-4.218 25.015-6.154 50.362-5.783 75.727 11.678 65.846 69.098 113.701 135.971 113.319 93.378-4.066 130.248-59.792 135.549-113.169 0.259-25.362-1.757-50.695-6.024-75.697 20.754 4.247 11.717-43.346 10.723-58.587-0.904-15.784-6.657-40.544-23.616-35.634-0.817-31.96-13.511-62.469-35.604-85.577l0.633-68.708c0 0 17.019-9.82 89.523-39.791v0z" />
<glyph unicode="&#xe901;" glyph-name="autorefresh" d="M521.097 623.509l189.693 144.21-189.693 192.281v-121.173c-116.068-9.314-255.765-65.856-335.021-182.282-49.581-72.838-92.795-195.898-17.072-368.59 6.864-15.671 22.040-24.984 37.939-24.984 5.631 0 11.346 1.178 16.823 3.641 20.949 9.434 30.375 34.286 21.068 55.521-47.554 108.47-44.258 207.591 9.544 286.618 59.931 88.052 170.949 136.087 266.72 145.568v-130.811zM879.121 616.562c-9.307 21.223-33.836 30.777-54.774 21.343s-30.375-34.286-21.056-55.521c47.554-108.47 44.258-207.591-9.544-286.618-59.943-88.052-170.889-136.159-266.72-145.592v130.835l-189.693-144.21 189.693-192.281v121.245c116.021 9.398 255.765 65.808 335.021 182.21 49.581 72.838 92.795 195.898 17.072 368.59z" />
<glyph unicode="&#xe902;" glyph-name="chat" d="M985.969 333.038c0 167.989-155.99 302.98-347.977 302.98s-347.977-134.991-347.977-302.98c0-167.989 155.99-302.98 347.977-302.98 65.996 0 128.992 17.999 182.988 44.997l143.991-65.996-56.996 134.991c50.997 50.997 77.995 116.992 77.995 188.988v0zM440.005 912c-233.985 0-422.972-161.989-422.972-362.976 0-86.994 35.998-164.989 92.994-227.985l-68.996-161.989 176.988 80.995c14.999-8.999 29.998-14.999 44.997-20.999-14.999 35.998-23.998 74.995-23.998 116.992 0 194.987 176.988 350.977 398.974 350.977 77.995 0 149.99-20.999 212.986-53.996-41.997 158.99-209.986 278.982-410.973 278.982v0z" />
<glyph unicode="&#xe903;" glyph-name="delete" d="M365.418 72.835c15.123 0 27.381 12.359 27.381 27.589v310.675c0 15.232-12.261 27.591-27.381 27.591s-27.381-12.359-27.381-27.591v-310.675c-0.002-15.234 12.259-27.589 27.381-27.589zM514.363 72.835c15.123 0 27.383 12.359 27.383 27.589v310.675c0 15.232-12.265 27.591-27.383 27.591-15.121 0-27.381-12.359-27.381-27.591v-310.675c0-15.234 12.259-27.589 27.381-27.589zM644.693 72.835c15.121 0 27.377 12.359 27.377 27.589v310.675c0 15.232-12.259 27.591-27.377 27.591-15.125 0-27.383-12.359-27.383-27.591v-310.675c-0.002-15.234 12.263-27.589 27.383-27.589zM858.589 715.64c0-33.733-27.237-61.181-60.703-61.181h-586.421c-33.466 0-60.703 27.448-60.703 61.181v5.97c0 33.733 27.237 61.181 60.703 61.181h586.424c33.466 0 60.703-27.448 60.703-61.181v-5.97h-0.002zM785.616 57.855c0-33.733-27.237-61.181-60.703-61.181h-440.474c-33.466 0-60.703 27.45-60.703 61.181v541.422h561.879v-541.422zM504.676 904.815c39.885 0 73.177-28.807 80.543-66.841h-161.072c7.364 38.036 40.658 66.841 80.529 66.841v0zM797.889 837.974h-157.33c-7.85 68.578-65.754 122.026-135.882 122.026-70.126 0-128.021-53.445-135.868-122.026h-157.343c-63.671 0-115.465-52.206-115.465-116.364v-5.97c0-49.029 30.296-90.993 72.974-108.092v-549.693c0-64.16 51.8-116.364 115.467-116.364h440.474c63.669 0 115.467 52.208 115.467 116.364v549.691c42.674 17.101 72.974 59.065 72.974 108.092v5.97c0 64.16-51.8 116.366-115.467 116.366v0z" />
<glyph unicode="&#xe904;" glyph-name="deposit" d="M919.733 457.686c2.422-21.795-14.53-41.168-36.324-41.168h-7.265c0 0-38.746 164.67-145.297 188.886l-41.168-41.168c14.53-4.843 29.059-12.108 41.168-21.795 0 0-7.265-67.805-62.962-41.168s-94.443 48.432-227.632 41.168c-14.53 2.422-26.638 16.951-24.216 33.903 0 2.422 2.422 7.265 2.422 9.686l21.795 21.795-41.168 41.168-38.746-21.795c0 0-48.432 50.854-104.13 41.168-2.422-26.638-2.422-55.697 0-84.757-53.276-33.903-89.6-84.757-104.13-145.297h-41.168c-21.795 0-41.168-16.951-41.168-38.746v-65.384c0 0 14.53-41.168 41.168-41.168h41.168c7.265-58.119 46.011-108.973 104.13-125.924v-125.924c0-24.216 19.373-41.168 41.168-41.168h62.962c21.795 2.422 41.168 19.373 41.168 41.168v41.168c33.903-14.53 67.805-21.795 104.13-21.795 41.168 2.422 84.757 9.686 123.503 21.795v-62.962c7.265-14.53 24.216-24.216 41.168-21.795h62.962c0 0 41.168 7.265 41.168 41.168v125.924c65.384 50.854 101.708 128.346 104.13 208.259 38.746 9.686 65.384 43.589 62.962 84.757 0 72.649-12.108 14.53-21.795 0v0zM270.738 481.903c-9.686-16.951-21.795-26.638-29.059-24.216s-9.686 21.795 0 38.746c9.686 16.951 21.795 29.059 29.059 24.216 9.686-4.843 9.686-21.795 0-38.746v0zM587.971 920.216c-92.022 0-167.092-75.070-167.092-169.514 2.422-94.443 77.492-167.092 169.514-167.092 94.443 2.422 167.092 77.492 167.092 169.514-2.422 94.443-77.492 167.092-169.514 167.092v0zM566.176 777.341c9.686-4.843 16.951-7.265 26.638-9.686 12.108-4.843 24.216-7.265 33.903-14.53 12.108-7.265 21.795-19.373 24.216-33.903 0-26.638-7.265-38.746-48.432-41.168v-21.795c0-9.686-7.265-14.53-14.53-14.53-9.686 0-14.53 7.265-14.53 14.53v21.795c-36.324 4.843-50.854 33.903-48.432 58.119h26.638c0-12.108 2.422-21.795 9.686-31.481 4.843-4.843 14.53-7.265 26.638-7.265 19.373 0 29.059 2.422 29.059 19.373 0 9.686-2.422 16.951-9.686 21.795s-16.951 7.265-26.638 9.686c-12.108 2.422-21.795 7.265-31.481 12.108-12.108 4.843-21.795 14.53-24.216 26.638 0 16.951 4.843 24.216 14.53 33.903 7.265 7.265 21.795 7.265 31.481 7.265v21.795c0 7.265 7.265 14.53 14.53 14.53 9.686 0 14.53-7.265 14.53-14.53v-21.795c41.168-2.422 41.168-16.951 46.011-41.168h-29.059c0 7.265-7.265 14.53-12.108 16.951-4.843 4.843-12.108 4.843-19.373 4.843-9.686 0-16.951 0-24.216-2.422-4.843-2.422-7.265-7.265-7.265-14.53 2.422-4.843 4.843-12.108 12.108-14.53v0z" />
<glyph unicode="&#xe905;" glyph-name="download" d="M943.878 421.941l-43.338-16.495v53.655h-6.046l3.032 1.155 46.352-17.65c14.976-5.703 14.976-14.961 0-20.664v0zM943.878 519.885l-159.596-60.784h-67.318v-25.646l-139.11-52.969c-17.604-5.703-36.624-5.703-54.228 0l-366.080 139.399c-14.976 5.703-14.976 14.961 0 20.664l46.37 17.65 319.654-121.749c17.604-5.703 36.624-5.703 54.228 0l319.673 121.749 46.352-17.65c15.031-5.703 15.031-14.961 0.055-20.664v0zM943.878 617.828l-366.080-139.399c-17.604-5.703-36.624-5.703-54.228 0l-366.080 139.399c-14.976 5.703-14.976 14.943 0 20.646l366.080 139.417c17.604 5.703 36.624 5.703 54.228 0l366.080-139.417c14.976-5.703 14.976-14.943 0-20.646v0zM157.582 442.659l46.37 17.65 319.654-121.749c17.604-5.703 36.624-5.703 54.228 0l139.11 52.987v-55.947l-139.11-52.969c-17.604-5.703-36.624-5.703-54.228 0l-366.080 139.399c-14.902 5.613-14.902 14.871 0.055 20.628v0zM157.582 344.715l46.37 17.65 319.71-121.839c17.604-5.703 36.624-5.703 54.228 0l54.265 20.664 34.5-42.827-88.747-33.803c-17.604-5.703-36.624-5.703-54.228 0l-366.080 139.399c-14.976 5.739-14.976 14.997-0.018 20.7v0.054zM157.582 246.772l46.37 17.65 319.654-121.748c17.604-5.703 36.624-5.703 54.228 0l114.631 43.657 34.5-42.827-149.15-56.796c-17.604-5.703-36.624-5.703-54.228 0l-366.006 139.381c-14.958 5.667-14.958 14.925 0 20.628v0.054zM716.945 293.695v-17.921h-47.017l47.017 17.921zM744.826 248.865v183.327h127.814v-183.471h68.557l-132.454-166.398-132.473 166.398h68.557v0.144zM900.521 361.301l43.338-16.495c14.976-5.703 14.976-14.961 0-20.664l-43.338-16.495v53.655z" />
<glyph unicode="&#xe906;" glyph-name="dropdown-arrow" d="M672 521.6c0 12.8-9.6 22.4-19.2 22.4h-281.6c-9.6 0-19.2-9.6-19.2-22.4 0-3.2 3.2-9.6 6.4-12.8l140.8-150.4c3.2-3.2 6.4-6.4 12.8-6.4s9.6 3.2 12.8 6.4l140.8 150.4c3.2 3.2 6.4 9.6 6.4 12.8v0z" />
<glyph unicode="&#xe907;" glyph-name="E-Games" d="M803.507 68.384c-101.708 90.784-481.153 91.232-584.783 0-43.732-39.705-108.688-45.174-158.457-13.343s-71.981 93.050-54.185 149.343c42.701 108.384 103.823 435.2 265.883 462.368 58.752 7.357 118.393 2.476 175.163-14.336v19.584c0 17.673 14.342 32 32.034 32v96c0 17.673 14.342 32 32.034 32s32.034-14.327 32.034-32v-96c17.692 0 32.034-14.327 32.034-32v-19.552c56.727 17.011 116.354 22.164 175.163 15.136 161.997-27.296 223.118-354.464 265.883-463.008s-101.772-235.136-212.803-136.192v0zM318.927 512c-70.768 0-128.137-57.308-128.137-128s57.369-128 128.137-128c70.768 0 128.137 57.308 128.137 128s-57.369 128-128.137 128v0zM639.268 480c-17.692 0-32.034-14.327-32.034-32s14.342-32 32.034-32c17.692 0 32.034 14.327 32.034 32 0 8.492-3.379 16.637-9.394 22.639s-14.171 9.37-22.672 9.361h0.032zM703.336 352c-17.692 0-32.034-14.327-32.034-32s14.342-32 32.034-32c17.692 0 32.034 14.327 32.034 32 0 8.492-3.379 16.637-9.394 22.639s-14.171 9.37-22.672 9.361h0.032zM767.405 512c-17.692 0-32.034-14.327-32.034-32s14.342-32 32.034-32c17.692 0 32.034 14.327 32.034 32 0 8.492-3.379 16.637-9.394 22.639s-14.171 9.37-22.672 9.361h0.032zM831.473 384c-17.692 0-32.034-14.327-32.034-32s14.342-32 32.034-32c17.692 0 32.034 14.327 32.034 32 0 8.492-3.379 16.637-9.394 22.639s-14.171 9.37-22.672 9.361h0.032z" />
<glyph unicode="&#xe908;" glyph-name="edit" d="M229.758 734.105c0-2.459-1.993-4.458-4.443-4.458h-111.8l116.243 116.599v-112.141zM786.945 776.143c13.18 0 23.871 10.72 23.871 23.944v75.549c0 28.873-23.408 52.365-52.182 52.365h-505.009c-6.33 0-12.401-2.525-16.881-7.014l-197.753-198.352c-4.476-4.489-6.993-10.581-6.993-16.93v-717.336c0.002-28.876 23.421-52.369 52.209-52.369h674.424c28.774 0 52.182 23.492 52.182 52.367v365.573c0.002 13.221-10.688 23.946-23.869 23.946s-23.871-10.722-23.871-23.946v-365.573c0-2.47-1.992-4.479-4.437-4.479h-674.426c-2.461 0-4.464 2.009-4.464 4.479v693.391h145.569c28.778 0 52.185 23.482 52.185 52.345v146.010h481.133c2.447 0 4.437-2.009 4.437-4.478v-75.549c0-13.223 10.69-23.944 23.873-23.944v0zM939.446 648.465l-30.076-30.169-74.799 75.024 30.078 30.169c12.882 12.919 33.837 12.917 46.709 0l28.088-28.173c12.878-12.917 12.878-33.935 0-46.851v0zM493.82 201.488l-74.795 75.022 381.787 382.943 74.797-75.022-381.789-382.943zM377.833 160.178l19.485 70.382 50.686-50.84-70.171-19.542zM973.21 729.177l-28.088 28.169c-31.496 31.589-82.738 31.585-114.236 0l-222.957-223.632h-386.724c-13.184 0-23.871-10.72-23.871-23.944s10.688-23.944 23.871-23.944h338.981l-143.674-144.109h-195.307c-13.184 0-23.871-10.72-23.871-23.944 0-13.222 10.688-23.944 23.871-23.944h147.563l-0.384-0.386c-2.913-2.922-5.018-6.547-6.121-10.524l-36.871-133.199h-104.185c-13.184 0-23.871-10.72-23.871-23.944s10.688-23.942 23.871-23.942h122.335c0.002 0 5.233 0.591 6.002 0.792 0.126 0.033 150.663 41.931 150.663 41.931 3.968 1.104 7.584 3.222 10.495 6.14l462.51 463.905c31.49 31.585 31.49 82.983 0 114.572v0z" />
<glyph unicode="&#xe909;" glyph-name="gamehistory" d="M276.114 740.571h345.6c14.811 0 24.686-9.874 24.686-24.686s-9.874-24.686-24.686-24.686h-345.6c-14.811 0-24.686 9.874-24.686 24.686s9.874 24.686 24.686 24.686v0zM276.114 617.143h345.6c14.811 0 24.686-9.874 24.686-24.686s-9.874-24.686-24.686-24.686h-345.6c-14.811 0-24.686 9.874-24.686 24.686s9.874 24.686 24.686 24.686v0zM606.903 493.714h-330.789c-14.811 0-24.686-9.874-24.686-24.686s9.874-24.686 24.686-24.686h259.2c19.749 19.749 44.434 37.029 71.589 49.371v0zM478.537 370.286h-202.423c-14.811 0-24.686-9.874-24.686-24.686s9.874-24.686 24.686-24.686h182.674c4.937 17.28 12.343 34.56 19.749 49.371v0zM448.914 246.857h-172.8c-14.811 0-24.686-9.874-24.686-24.686s9.874-24.686 24.686-24.686h177.737c-2.469 14.811-4.937 32.091-4.937 49.371v0zM745.143 864h-592.457c-14.811 0-24.686-9.874-24.686-24.686v-740.571c0-14.811 9.874-24.686 24.686-24.686h357.943c-12.343 14.811-22.217 32.091-32.091 49.371h-301.166v691.2h543.086v-296.229c17.28 0 34.56-2.469 49.371-4.937v325.851c0 14.811-9.874 24.686-24.686 24.686v0zM720.457 493.714c-135.771 0-246.857-111.086-246.857-246.857s111.086-246.857 246.857-246.857c135.771 0 246.857 111.086 246.857 246.857s-111.086 246.857-246.857 246.857v0zM720.457 49.371c-108.617 0-197.486 88.869-197.486 197.486s88.869 197.486 197.486 197.486c108.617 0 197.486-88.869 197.486-197.486s-88.869-197.486-197.486-197.486v0zM794.514 271.543h-49.371v98.743c0 14.811-9.874 24.686-24.686 24.686s-24.686-9.874-24.686-24.686v-123.429c0-14.811 9.874-24.686 24.686-24.686h74.057c14.811 0 24.686 9.874 24.686 24.686s-9.874 24.686-24.686 24.686v0z" />
<glyph unicode="&#xe90a;" glyph-name="help" d="M792.728 559.222c-4.433-46.477-20.68-91.074-47.219-129.609-19.322-28.351-43.968-52.736-72.589-71.818 0 0-6.703-52.067-9.635-74.447-1.036-10.753-3.382-21.341-6.987-31.533 6.013-14.233 6.325-30.209 0.871-44.662 6.416-12.293 6.738-26.843 0.871-39.404 5.306-15.28 3.756-32.086-4.255-46.155s-21.715-24.050-37.636-27.41c0-61.285-98.863-62.184-98.863-62.184s-98.863 0.899-98.863 62.184c-15.92 3.36-29.624 13.341-37.636 27.41s-9.561 30.875-4.255 46.155c-5.867 12.56-5.545 27.111 0.871 39.404-5.454 14.453-5.142 30.429 0.871 44.662-3.607 10.192-5.959 20.78-7.004 31.533-2.999 22.381-9.618 74.447-9.618 74.447-28.621 19.082-53.267 43.467-72.589 71.818-26.539 38.535-42.787 83.132-47.219 129.609-5.112 51.736 4.27 103.868 27.112 150.642 46.315 94.304 142.724 154.129 248.38 154.129s202.064-59.825 248.38-154.129c22.807-46.784 32.155-98.916 27.011-150.642v0zM608.223 132.705c7.502 1.287 13.226 7.373 14.008 14.893-0.309 8.387-7.3 14.998-15.751 14.893l-130.365-29.786h132.107zM462.996 89.807c31.914-24.484 76.45-24.484 108.363 0 2.48 1.469 4.253 3.877 4.91 6.67s0.143 5.731-1.425 8.14c-5.714 9.036-15.684-1.248-20.108-3.478-11.824-5.425-24.542-8.672-37.534-9.585v0c-13.024 0.922-25.77 4.186-37.618 9.635-4.39 2.246-14.394 12.58-20.108 3.494-1.572-2.422-2.086-5.375-1.422-8.18s2.447-5.222 4.941-6.696v0zM412.241 144.969c2.554-7.825 10.173-12.895 18.432-12.264l174.987 39.42c0 0 19.773 3.212 16.622 18.304-0.993 4.814-4.224 8.876-8.71 10.95s-9.697 1.913-14.045-0.433l-173.227-37.656c-8.413-2.107-14.244-9.707-14.059-18.321v0zM425.361 242.196c-7.332-0.677-12.981-6.716-13.12-14.028 0.35-7.569 5.7-13.994 13.12-15.758l132.995 29.786h-132.995zM585.452 526.824l-8.747 4.376c-9.002-5.954-20.724-5.954-29.726 0-19.811 1.176-39.674 1.176-59.485 0-9.002-5.954-20.724-5.954-29.726 0l-8.747-4.376 39.361-107.727 5.245-144.502h47.219l5.245 144.502 39.361 107.727zM425.361 202.776c-8.434-1.808-13.872-9.972-12.249-18.387 1.096-3.964 3.761-7.319 7.388-9.3s7.907-2.42 11.865-1.216l177.617 39.42c7.823 2.525 12.644 10.316 11.378 18.387-2.664 7.562-10.511 12.040-18.432 10.516l-177.567-39.42zM668.546 750.149c-60.44 60.719-151.31 59.555-151.31 59.555s-90.87 1.165-151.31-59.555c-53.161-48.609-79.45-119.696-70.602-190.918s51.744-133.834 115.208-168.156l17.494-115.598 42.863-1.764-7.004 141.007-53.352 143.62c-1.197 5.498 1.27 11.142 6.133 14.028 3.37 1.275 7.113 1.158 10.395-0.323s5.833-4.205 7.082-7.564c2.128-5.508 9.635-24.527 9.635-24.527 2.871 1.020 5.12 3.278 6.116 6.14 0.012 4.367 2.832 8.238 7.004 9.618 4.491-0.486 7.885-4.266 7.859-8.753 0.079-1.91 0.998-3.69 2.514-4.868s3.476-1.637 5.362-1.255c3.939 0.249 7.195 3.144 7.875 7.005-0.394 3.821 2.294 7.28 6.116 7.871 4.425-0.616 7.755-4.317 7.875-8.753 0.528-3.944 3.87-6.917 7.875-7.005 3.847 0.089 6.934 3.184 6.987 7.005-0.342 3.005 1.079 5.939 3.658 7.549s5.857 1.609 8.436 0c2.578-1.609 4-4.544 3.658-7.549 0.053-3.821 3.14-6.916 6.987-7.005 4.005 0.088 7.348 3.062 7.875 7.005 0.12 4.436 3.45 8.137 7.875 8.753 3.822-0.591 6.51-4.049 6.116-7.871 0.681-3.861 3.936-6.757 7.875-7.005 1.886-0.382 3.846 0.077 5.362 1.255s2.435 2.958 2.514 4.868c-0.019 4.484 3.371 8.259 7.859 8.753 4.172-1.379 6.992-5.251 7.004-9.618 0.996-2.862 3.245-5.12 6.116-6.14 0 0 7.507 19.020 9.618 24.527 1.256 3.357 3.81 6.078 7.094 7.559s7.027 1.599 10.4 0.328c4.863-2.885 7.33-8.529 6.133-14.028l-53.352-143.62-7.004-141.007 42.863 1.764 17.494 115.598c63.463 34.322 106.36 96.934 115.208 168.156s-17.441 142.31-70.602 190.918v0z" />
<glyph unicode="&#xe90b;" glyph-name="history" d="M614.383 104.393c-7.112-1.718-14.364-3.244-21.561-4.528-18.815-3.391-31.254-20.929-27.774-39.181 1.719-8.979 6.981-16.459 14.124-21.341 7.363-5.023 16.733-7.29 26.282-5.569 8.571 1.542 17.21 3.355 25.686 5.405 18.58 4.482 29.899 22.725 25.264 40.723-4.624 18.015-23.43 28.976-42.021 24.491v0zM870.795 554.836c2.429-7.094 7.066-12.886 12.923-16.888 8.684-5.928 20.048-7.923 30.893-4.448 18.181 5.851 28.032 24.852 22.017 42.464-2.74 8.029-5.781 16.083-9.020 23.925-7.112 17.233-27.281 25.623-45.071 18.73-17.771-6.89-26.432-26.443-19.314-43.681 2.722-6.591 5.271-13.357 7.572-20.103v0zM727.054 152.374c-6.117-3.914-12.43-7.702-18.789-11.251-16.592-9.276-22.275-29.832-12.708-45.906 2.598-4.372 6.057-7.946 10.042-10.678 10.696-7.294 25.223-8.386 37.317-1.633 7.561 4.226 15.079 8.723 22.364 13.391 15.971 10.227 20.367 31.077 9.81 46.563-10.555 15.492-32.059 19.747-48.035 9.513v0zM958.187 460.976c-0.755 18.548-16.874 32.985-36.017 32.261-19.119-0.731-34.026-16.36-33.275-34.901 0.287-7.089 0.362-14.284 0.193-21.366-0.269-11.632 5.601-22 14.723-28.232 5.434-3.709 12.029-5.953 19.18-6.112 19.138-0.412 34.998 14.3 35.422 32.858 0.191 8.462 0.119 17.035-0.226 25.492v0zM865.136 240.78c-15.346 11.159-37.057 8.13-48.551-6.717-4.402-5.686-9.037-11.301-13.783-16.708-12.404-14.124-10.652-35.339 3.921-47.37 0.831-0.683 1.671-1.31 2.542-1.899 14.488-9.9 34.623-7.625 46.337 5.698 5.668 6.451 11.193 13.159 16.453 19.95 11.495 14.847 8.384 35.904-6.919 47.047v0zM916.105 362.261c-18.272 5.553-37.73-4.306-43.456-22.015-2.192-6.766-4.62-13.564-7.242-20.221-5.757-14.656-0.241-30.782 12.404-39.424 2.319-1.58 4.874-2.918 7.65-3.935 17.89-6.616 37.923 2.083 44.743 19.429 3.113 7.916 6.002 16.004 8.614 24.047 5.72 17.713-4.444 36.567-22.712 42.119v0zM463.105 99.563c-31 5.395-60.738 14.581-88.936 27.393-0.334 0.169-0.632 0.361-0.983 0.516-6.645 3.031-13.279 6.279-19.709 9.671-0.022 0.025-0.063 0.041-0.098 0.056-11.797 6.297-23.311 13.263-34.497 20.895-163.107 111.359-202.324 330.568-87.42 488.65 24.986 34.362 55.222 63.029 88.931 85.75 0.415 0.28 0.831 0.559 1.242 0.841 118.785 79.326 280.077 84.672 406.208 3.157l-27.090-37.936c-7.531-10.559-2.898-18.254 10.286-17.104l117.673 10.21c13.201 1.15 21.096 12.218 17.545 24.574l-31.599 110.345c-3.538 12.37-12.595 13.851-20.133 3.294l-27.153-38.026c-92.563 60.222-203.583 83.186-313.777 64.666-11.099-1.862-22.041-4.14-32.834-6.793-0.083-0.014-0.15-0.023-0.217-0.038-0.417-0.099-0.84-0.23-1.246-0.34-95.021-23.65-177.927-77.363-237.085-154.001-0.499-0.573-1.012-1.134-1.483-1.757-1.967-2.568-3.92-5.195-5.831-7.822-3.126-4.306-6.207-8.719-9.155-13.132-0.369-0.532-0.651-1.073-0.973-1.61-48.818-73.318-72.365-158.082-68.326-244.376 0.009-0.284-0.007-0.57 0-0.861 0.391-8.43 1.081-16.976 2.017-25.389 0.050-0.543 0.174-1.057 0.269-1.599 0.968-8.46 2.182-16.94 3.704-25.418 15.47-86.503 57.573-164.342 120.661-224.91 0.146-0.142 0.299-0.297 0.447-0.444 0.052-0.056 0.109-0.084 0.159-0.137 16.95-16.203 35.387-31.19 55.239-44.741 51.951-35.479 109.8-58.932 171.927-69.737 18.85-3.283 36.857 8.879 40.239 27.14 3.38 18.273-9.157 35.74-28.002 39.012v0zM505.981 716.292c-15.506 0-28.065-12.183-28.065-27.19v-270.889l255.622-128.072c4.114-2.065 8.519-3.037 12.854-3.037 10.153 0 19.959 5.359 24.945 14.708 7.11 13.344 1.73 29.738-12.039 36.63l-225.283 112.882v237.778c-0.002 15.007-12.547 27.19-28.034 27.19v0z" />
<glyph unicode="&#xe90c;" glyph-name="home" d="M945.66 418.133v0c18.829 12.932 26.044 30.972 0 59.733s-339.379 358.4-339.379 358.4c0 0-45.771 59.733-92.351 59.733s-92.501-59.733-92.501-59.733c0 0-314.053-329.638-340.127-358.4s-18.829-46.801 0-59.733c13.663-6.947 29.833-6.947 43.496 0l29.935 29.867v-388.267h-29.935c-16.533 0-29.935-13.372-29.935-29.867s13.403-29.867 29.935-29.867h777.454c16.533 0 29.935 13.372 29.935 29.867s-13.403 29.867-29.935 29.867h-29.935v388.267l29.935-29.867c13.638-6.917 29.768-6.917 43.406 0zM424.124 328.533h179.613v-268.8h-179.613v268.8zM409.156 358.4h209.548c8.266 0 14.968-6.686 14.968-14.933s-6.701-14.933-14.968-14.933h-209.548c-8.266 0.008-14.961 6.701-14.953 14.948s6.716 14.927 14.983 14.918h-0.030z" />
<glyph unicode="&#xe90d;" glyph-name="inbox" d="M604.235 613.064h-203.294v-25.212h203.294v25.212zM680.471 562.64h-279.529v-25.212h279.529v25.212zM908.44 550.916l0.686 0.807-101.647 83.83v103.824h-125.839l-100.351 82.797c-30.632 23.442-73.465 23.004-103.604-1.059l-99.919-81.738h-103.883v-84.99l-125.712-102.815c-20.017-15.229-30.237-39.958-26.759-64.745v-378.736c0-41.773 34.132-75.636 76.235-75.636h660.706c42.104 0 76.235 33.864 76.235 75.636v378.736c3.258 24.418-6.675 48.736-26.149 64.014v0.076zM807.529 568.64l48.536-40.516-18.652-16.060h-4.472c1.372 0 2.668-0.277 4.015-0.403l-29.427-25.212v82.192zM510.212 783.472c5.554 4.432 12.465 6.851 19.592 6.858 6.926 0.018 13.679-2.145 19.288-6.177l53.771-44.852h-146.016l53.365 44.172zM324.706 688.801h432v-246.222l-207.487-178.678c-5.609-4.032-12.362-6.194-19.288-6.177-7.134-0.009-14.053 2.422-19.592 6.883l-185.506 168.064v256.13h-0.127zM273.882 588.482v-109.799l-63.529 57.559 63.529 52.24zM174.776 118.73c-1.575 4.722-2.432 9.65-2.541 14.623v328.237c0.055 11.491 4.083 22.615 11.41 31.515l204.971-185.536-213.84-188.839zM832.941 82.853h-609.882c-3.571 0.004-7.132 0.384-10.622 1.135l214.196 189.091-0.28 0.429 51.51-46.642c30.102-24.164 73.006-24.603 103.604-1.059l51.433 44.272 210.791-186.091c-3.532-0.759-7.135-1.14-10.749-1.135v0zM883.765 133.277c-0.11-4.973-0.966-9.901-2.541-14.623l-209.571 184.956 207.411 178.628c2.989-6.508 4.548-13.573 4.574-20.724v-328.161l0.127-0.076zM655.059 511.988h-254.118v-25.212h254.118v25.212z" />
<glyph unicode="&#xe90e;" glyph-name="input--ok" d="M776.416 627.625h0.128c-0.235 0.235-0.469 0.469-0.704 0.704-16.917 16.533-44.053 16.213-60.565-0.704l-284.971-287.445-122.603 123.669c-16.853 16.597-43.989 16.384-60.587-0.491-16.875-17.088-16.875-44.565 0-61.653l152.235-153.557c0.149-0.149 0.235-0.32 0.363-0.469l0.512-0.491c8.448-8.32 19.456-12.395 30.421-12.288 10.987 0.064 21.931 4.331 30.229 12.779 0.149 0.149 0.256 0.32 0.384 0.469l315.157 317.824c16.896 17.088 16.896 44.565 0 61.653z" />
<glyph unicode="&#xe90f;" glyph-name="input-error" d="M446.656 423.172l-194.971 194.971c-15.099 15.099-15.099 39.578 0 54.677s39.578 15.099 54.677 0l194.971-194.971 194.971 194.971c15.099 15.099 39.578 15.099 54.677 0s15.099-39.578 0-54.677l-194.971-194.971 187.982-187.982c15.099-15.099 15.099-39.578 0-54.677s-39.578-15.099-54.677 0l-187.982 187.982-187.982-187.982c-15.099-15.099-39.578-15.099-54.677 0s-15.099 39.578 0 54.677l187.982 187.982z" />
<glyph unicode="&#xe910;" glyph-name="Live" d="M838.857 58c-90.926-125.010-562.878-113.040-653.714 0 0 0-77.554 15.3-89.143 60l53.694 171c0 0 32.864 87.39 154.306 99l134.13 35.7c-1.29 1.678-2.35 3.525-3.15 5.49-3.266 13.968-12.632 25.686-25.465 31.86-14.704 16.701-28.228 34.425-40.471 53.040-4.721 37.772-6.598 75.851-5.616 113.91-55.15 14.46-107.714 24.93-107.714 49.020 0 27.54 45.819 51.75 115.113 66-5.48 41.422-7.952 83.194-7.399 124.98 0 0-32.507 60 147.858 60 179.861 0 149.285-60 149.285-60-0.495-41.833-3.571-83.594-9.211-125.040 69.531-14.1 115.499-38.34 115.499-66 0-24-51.138-34.56-106.288-49.020 0.97-37.966-1.386-75.944-7.042-113.49-12.026-18.828-25.562-36.627-40.471-53.22-12.79-6.282-22.122-18.015-25.435-31.98-0.613-1.531-1.39-2.99-2.318-4.35l134.695-36.9c66.242-1.979 126.3-39.804 157.189-99l50.811-171c-12.064-44.7-89.143-60-89.143-60v0z" />
<glyph unicode="&#xe911;" glyph-name="Lottery" d="M769.746 303.74c22.955 196.295-109.4 377.306-304.457 416.382 68.68 97.971 193.592 140.117 308.155 103.972s192.078-142.157 191.23-261.53c-0.848-119.373-79.863-224.288-194.928-258.824v0zM717.467 346.451c0-180.527-147.362-326.873-329.143-326.873s-329.143 146.346-329.143 326.873c0 180.527 147.362 326.873 329.143 326.873s329.143-146.346 329.143-326.873v0zM463.397 414.141c8.769 5.969 16.702 13.068 23.589 21.111 6.634 7.747 12.087 16.42 16.183 25.741 4.11 9.59 6.174 19.923 6.062 30.345 1.508 21.501-8.312 42.243-25.947 54.806-19.322 12.451-42.044 18.672-65.061 17.815-23.535 0.406-46.771-5.284-67.419-16.507-23.038-13.615-43.941-30.511-62.043-50.148 2.023-3.291 4.854-6.019 8.229-7.927 2.462-1.593 5.296-2.531 8.229-2.724 1.918-0.108 3.826 0.347 5.486 1.307 1.512 1.007 3.088 1.917 4.718 2.724 7.186 4.849 13.705 8.916 19.557 12.203 5.285 3.034 10.786 5.683 16.457 7.927 4.908 1.907 9.987 3.348 15.168 4.304 5.345 0.905 10.76 1.343 16.183 1.307 11.863 0.389 23.47-3.479 32.695-10.896 8.836-7.413 13.693-18.489 13.138-29.963 0.122-9.45-1.477-18.844-4.718-27.73-3.67-9.24-9.28-17.597-16.457-24.515-9.897-9.482-20.869-17.791-32.695-24.761-13.934-8.571-31.689-18.141-53.266-28.71v-26.395c17.112 7.169 35.392 11.193 53.952 11.876 16.588 1.285 32.856-5.037 44.16-17.161 10.288-13.408 15.423-30.021 14.482-46.852-0.044-12.108-1.977-24.137-5.733-35.656-4.672-13.295-12.154-25.443-21.943-35.629-13.196-13.753-28.419-25.435-45.147-34.649-24.253-13.36-49.776-24.309-76.197-32.687-3.674-0.837-6.223-4.159-6.062-7.899 0.094-2.77 0.546-5.516 1.344-8.172 0.813-3.092 2.442-5.913 4.718-8.172 35.938 6.343 71.161 16.178 105.161 29.364 26.838 10.287 52.133 24.171 75.182 41.268 18.251 13.452 33.61 30.391 45.175 49.821 9.822 16.735 15.052 35.736 15.168 55.105 0.604 22.2-7.774 43.715-23.259 59.736-18.377 17.469-41.874 28.678-67.090 32.006v1.335c9.652 5.154 19.002 10.847 28.005 17.052v0z" />
<glyph unicode="&#xe912;" glyph-name="partner" d="M863.507 344.564l-8.897 7.392c3.354 15.759 8.457 34.724 14.515 40.813 3.76 3.777 0 15.109 0 15.109l-135.37 283.293c-103.46 20.786-213.222 41.523-291.624 1.114-1.816 0.495-3.7 0.812-5.686 0.771l-156.051-1.889c-11.42-0.136-20.569-9.549-20.43-21.024 0.135-11.385 9.367-20.522 20.674-20.522h0.256l106.822 1.292c-49.733-50.483-61.304-106.322-67.591-141.050-7.521-41.55 7.521-49.104 52.644-49.104s120.329 128.426 120.329 128.426h11.149l328.828-273.257c3.854-10.818 7.927-29.636 2.125-39.759-1.034-1.806-3.929-6.863-15.831-9.269-27.375 14.716-158.559 93.842-240.345 143.633-9.777 5.953-22.49 2.814-28.405-6.999-5.922-9.809-2.801-22.588 6.968-28.529 0.613-0.378 61.999-37.746 122.987-74.415 35.854-21.56 64.568-38.668 85.343-50.853 6.062-3.558 11.469-6.705 16.214-9.439 0.455-18.663-10.371-30.849-17.515-36.821-13.022-10.878-30.278-15.192-41.98-10.501-5.802 2.331-15.545 8.518-27.728 17.202-0.263 0.2-0.526 0.385-0.797 0.57-40.445 28.93-107.333 84.931-149.82 122.133-8.611 7.547-21.67 6.64-29.18-2.006-7.502-8.65-6.611-21.772 2-29.311 11.732-10.274 94.067-82.045 149.685-122.088 18.076-17.118 25.596-36.005 2.155-51.080-9.122-5.862-24.009-0.397-30.808 3.214-59.826 31.819-143.755 126.655-144.597 127.61-7.569 8.593-20.64 9.398-29.191 1.794-8.555-7.604-9.356-20.729-1.786-29.326 2.801-3.18 54.674-61.792 108.758-104.663-1.839-2.905-4.497-5.413-7.972-7.4-13.913-7.951-36.501-6.085-61.965 5.107-2.072 0.91-4.516 2.263-7.276 3.993 0.53 0.525 1.109 0.975 1.692 1.413 7.393 15.456 3.298 35.793-11.318 49.482-16.62 15.483-40.852 16.635-55.468 3.086-0.083 0.076-0.162 0.147-0.244 0.227 12.138 15.846 9.111 40.152-7.551 55.669-16.391 15.252-40.084 16.65-54.765 3.819-0.105 0.102-0.211 0.208-0.316 0.31 11.454 15.838 8.186 39.608-8.22 54.857-15.504 14.493-37.58 16.461-52.369 5.692-0.346 0.355-0.688 0.706-1.034 1.058 9.393 15.751 5.64 37.821-9.859 52.315-14.3 13.334-34.061 15.921-48.635 7.834-25.461 26.501-49.587 52.013-70.607 74.582-7.806 8.378-20.892 8.82-29.232 0.978-8.34-7.838-8.78-20.983-0.974-29.364 8.273-8.884 35.58-38.109 71.596-75.639l-35.313-38.358c-14.304-15.672-18.279-49.678-0.782-65.996 17.436-16.261 49.741-8.722 64.064 6.992-14.323-15.713-11.743-41.64 5.731-57.939 17.433-16.242 43.232-16.797 57.551-1.084-14.319-15.713-11.762-41.64 5.712-57.92 17.474-16.299 54.201-11.966 57.551-1.107-6.268-20.306 3.835-38.369 16.135-47.469 11.725-8.673 46.398-8.673 57.551-1.061 0 0 10.593 12.646 21.983 26.131 6.949-4.831 12.954-8.427 17.82-10.565 20.343-8.941 39.844-13.424 57.525-13.424 15.425 0 29.469 3.415 41.464 10.267 8.705 4.971 15.891 11.619 21.227 19.4 4.659-2.916 9.258-5.617 13.766-8.015 16.049-8.533 29.638-11.626 40.904-11.626 20.794 0 33.677 10.527 39.49 16.782 11.928 12.831 17.568 31.551 17.004 51.582 5.505-1.345 11.198-2.077 17.008-2.077 19.824 0.004 40.724 7.656 57.867 21.984 17.042 14.24 27.773 33.183 31.184 53.743 28.398 4.159 42.258 18.652 48.899 30.339 18.764 33.024 0.214 76.602-1.963 81.464-1.297 2.897-3.241 5.458-5.678 7.483zM1000.735 498.531c0 0-120.329 241.743-139.13 275.738s-37.603 11.332-37.603 11.332c0 0-26.574-14.455-56.404-26.441-18.801-7.554-18.801-30.218-7.521-45.327s101.764-200.084 127.849-256.852c22.562-49.104 30.082-45.327 48.883-41.55s41.363 11.332 63.925 22.663c22.562 11.332 0 60.436 0 60.436zM235.204 763.572c0 0-27.551 12.469-55.126 29.036-17.376 10.444-35.32-3.294-40.445-21.466-5.125-18.169-96.974-202.456-125.879-257.83-28.909-55.374-3.271-64.239-3.271-64.239s34.045-26.18 56.694-37.334c22.648-11.158 47.853 36.632 47.853 36.632s118.475 242.665 133.993 278.292c15.522 35.627-13.819 36.911-13.819 36.911z" />
<glyph unicode="&#xe913;" glyph-name="phone" d="M857.308 286.575h-87.105c-24.452 0.482-44.024 20.591-44.024 45.231s19.572 44.749 44.024 45.231h87.105c24.452-0.482 44.024-20.591 44.024-45.231s-19.572-44.749-44.024-45.231v0zM857.067 394.371h-86.624c-11.968 0-23.447 4.79-31.91 13.316s-13.217 20.091-13.217 32.149v0c0 25.11 20.204 45.465 45.127 45.465h86.624c24.896 0 45.089-20.313 45.127-45.396v0c0.018-12.070-4.728-23.652-13.193-32.194s-19.954-13.341-31.934-13.341v0zM852.198 502.305h-82.030c-25.161 1.309-44.592 22.772-43.578 48.135 0 40.924 44.869 42.952 44.869 42.952h30.761v180.891h-390.951v-97.604c0 0 30.606 14.456 47.432 24.717s79.535 56.888 105.101 14.317c25.566-42.571-34.598-85.887-34.598-85.887l-117.935-88.4v-394.299h392.258v29.935h-38.452c-23.751 1.962-41.486 22.856-39.725 46.8 0 39.416 46.142 44.252 46.142 44.252h75.699c12.869 0 55.054 3.588 55.054-44.252 0.557-12.521-4.114-24.705-12.881-33.598s-20.829-13.68-33.261-13.202h-15.381l-1.29-68.987c0-63.977-55.054-62.4-55.054-62.4h-353.875c-59.957 5.2-56.396 57.2-56.396 57.2v61.169h-65.376c-88.31 0-180.645 62.729-180.645 212.108s98.701 192.591 98.701 192.591l147.406 84.587v149.656c0 61.013 67.923 57.2 67.923 57.2h338.391c65.806 0 60.215-67.6 60.215-67.6v-197.808h11.527c3.441 0 49.996 2.063 49.996-45.552s-50.047-46.921-50.047-46.921v0zM606.761 73.167c11.206-0.007 21.313 6.79 25.604 17.219s1.923 22.437-6.001 30.42c-7.924 7.983-19.842 10.37-30.194 6.046s-17.098-14.506-17.091-25.796c0-15.403 12.394-27.889 27.682-27.889v0zM665.634 821.204h-116.662c-3.728-0.186-6.655-3.286-6.655-7.046s2.927-6.86 6.655-7.046h116.662c3.728 0.186 6.655 3.286 6.655 7.046s-2.927 6.86-6.655 7.046v0z" />
<glyph unicode="&#xe914;" glyph-name="plus-round" d="M512-24.615c-260.588 0-472.615 212.027-472.615 472.615s212.027 472.615 472.615 472.615c260.588 0 472.615-212.027 472.615-472.615s-212.027-472.615-472.615-472.615zM512 960c-282.309 0-512-229.671-512-512s229.691-512 512-512c282.309 0 512 229.671 512 512s-229.691 512-512 512zM758.154 467.692h-226.462v216.615c0 10.89-8.822 19.692-19.692 19.692s-19.692-8.802-19.692-19.692v-216.615h-226.462c-10.87 0-19.692-8.802-19.692-19.692s8.822-19.692 19.692-19.692h226.462v-236.308c0-10.89 8.822-19.692 19.692-19.692s19.692 8.802 19.692 19.692v236.308h226.462c10.87 0 19.692 8.802 19.692 19.692s-8.822 19.692-19.692 19.692z" />
<glyph unicode="&#xe915;" glyph-name="plus" d="M812.855 476.090h-276.786v267.584c0 13.452-10.783 24.326-24.068 24.326s-24.068-10.874-24.068-24.326v-267.584h-276.786c-13.286 0-24.068-10.874-24.068-24.326s10.783-24.326 24.068-24.326h276.786v-291.91c0-13.452 10.783-24.326 24.068-24.326s24.068 10.874 24.068 24.326v291.91h276.786c13.286 0 24.068 10.874 24.068 24.326s-10.783 24.326-24.068 24.326z" />
<glyph unicode="&#xe916;" glyph-name="profile" d="M936.421 42.163h-848.842c-13.022 0-23.579 10.401-23.579 23.23v487.84h896v-487.84c0-12.83-10.557-23.23-23.579-23.23v0zM559.158 158.316h235.789c13.022 0 23.579 10.401 23.579 23.23s-10.557 23.23-23.579 23.23h-235.789c-13.022 0-23.579-10.401-23.579-23.23s10.557-23.23 23.579-23.23v0zM300.19 320.929c38.99 0.211 70.455 31.468 70.348 69.882s-31.746 69.5-70.737 69.5c-38.991 0-70.629-31.085-70.737-69.5s31.357-69.671 70.348-69.882c-70.737-0.163-141.096-40.073-141.096-119.823 0 0 0.943-42.837 141.474-42.837s141.474 42.837 141.474 42.837c0 79.797-70.477 119.707-141.073 119.823v0zM889.263 437.082c0 12.83-10.557 23.23-23.579 23.23h-306.526c-13.022 0-23.579-10.401-23.579-23.23v-69.691c0-12.83 10.557-23.23 23.579-23.23h306.526c13.022 0 23.579 10.401 23.579 23.23v69.691zM865.684 297.699h-306.526c-13.022 0-23.579-10.401-23.579-23.23s10.557-23.23 23.579-23.23h306.526c13.022 0 23.579 10.401 23.579 23.23s-10.557 23.23-23.579 23.23v0zM64 622.926c0 12.83 10.557 23.23 23.579 23.23h306.526v69.691c0 64.149 52.783 116.152 117.895 116.152s117.895-52.003 117.895-116.152v-69.691h306.526c13.022 0 23.579-10.401 23.579-23.23v-23.23h-896v23.23zM512 669.387c26.045 0 47.158 20.801 47.158 46.461s-21.113 46.461-47.158 46.461c-26.045 0-47.158-20.801-47.158-46.461s21.113-46.461 47.158-46.461v0z" />
<glyph unicode="&#xe917;" glyph-name="Promotions" d="M731.442 177.222c-72.226 0-135.12 55.796-170.857 95.593 33.050-161.571 122.726-225.716 122.726-225.716v-20.015c-98.879-40.023-209.293-40.023-308.173 0v20.015c0 0 89.56 64 122.726 225.716-35.737-39.796-98.66-95.593-170.857-95.593-112.152 0-202.232 114.007-202.232 231.040s147.080 250.182 147.080 250.182l257.412 269.527 257.384-269.527c0 0 147.052-133.236 147.052-250.182s-90.109-231.040-202.261-231.040v0z" />
<glyph unicode="&#xe918;" glyph-name="right-arrow" d="M678.453 789.848c-13.078 13.536-34.876 13.536-48.381 0-13.078-13.078-13.078-34.845 0-47.893l245.32-245.32h-809.522c-18.871-0.030-33.87-15.030-33.87-33.9s14.999-34.358 33.87-34.358h809.522l-245.32-244.893c-13.078-13.505-13.078-35.303 0-48.381 13.505-13.505 35.333-13.505 48.381 0l303.395 303.426c13.536 13.078 13.536 34.845 0 47.893l-303.395 303.426z" />
<glyph unicode="&#xe919;" glyph-name="Service" d="M239.168 896c-15.774-0.069-31.154-4.935-44.096-13.952-1.312-0.928-132.8-96.32-131.2-150.592 4.864-152.384 152.896-331.488 276.192-454.912s302.336-271.584 455.264-276.448h1.472c53.568 0 147.68 129.888 148.576 131.2 22.674 26.803 19.639 66.841-6.816 89.92-13.664 9.6-163.2 109.184-181.664 120.416-8.598 4.997-18.41 7.522-28.352 7.296-15.272-0.376-30.23-4.415-43.616-11.776-14.4-7.584-58.048-32.448-79.392-44.8-93.361 72.238-177.102 156.118-249.184 249.6 12.16 21.376 36.96 65.024 44.512 79.36 14.103 21.681 15.733 49.19 4.288 72.384-10.88 17.216-109.984 167.616-120.224 181.728-11.071 13.746-28.033 21.389-45.664 20.576v0h-0.096z" />
<glyph unicode="&#xe91a;" glyph-name="Sports" d="M715.263 431.36c-63.66-112-143.045-132.32-143.045-132.32l-31.321-198.624c164.817 0 189.39-99.2 189.39-99.2-22.281-24.96-220.584-33.088-220.584-33.088s-199.862 8.128-222.334 33.088c0 0 24.223 99.2 190.599 99.2l-31.83 198.624c0 0-79.767 20.384-143.745 131.2-53.347-1.152-218.769 20.064-205.655 332.224-0.231 17.947 13.981 32.72 31.83 33.088h95.268c0 0-19.671 132.448 285.74 132.448 291.533 0 282.939-132.416 282.939-132.416h98.228c17.831-0.35 32.043-15.095 31.83-33.024 13.178-314.56-155.682-332.832-207.31-331.2v0zM225.777 729.376h-65.57c0 0-20.594-185.152 107.682-224-24.974 72.163-39.166 147.651-42.111 224v0zM858.913 729.568h-68.562c-2.882-76.315-16.91-151.788-41.634-224 131.045 37.12 110.26 224.032 110.26 224.032l-0.064-0.032z" />
<glyph unicode="&#xe91b;" glyph-name="star" d="M469.947 906.213c6.602 13.334 20.197 21.787 35.056 21.787s28.498-8.453 35.056-21.787l125.734-254.802c5.686-11.525 16.711-19.521 29.456-21.373l281.208-40.851c14.728-2.135 26.929-12.462 31.526-26.602s0.763-29.696-9.891-40.067l-203.449-198.351c-9.216-8.976-13.399-21.918-11.264-34.598l48.019-280.075c2.506-14.685-3.508-29.5-15.578-38.258-12.048-8.715-27.975-9.87-41.178-2.985l-251.512 132.249c-11.373 5.991-24.99 5.991-36.385 0l-251.512-132.227c-13.159-6.907-29.13-5.774-41.178 2.963s-18.062 23.574-15.556 38.258l48.019 280.075c2.179 12.68-2.048 25.622-11.264 34.598l-203.449 198.351c-10.654 10.393-14.489 25.927-9.891 40.067s16.82 24.467 31.57 26.602l281.23 40.851c12.724 1.852 23.748 9.848 29.435 21.395l125.799 254.78z" />
<glyph unicode="&#xe91c;" glyph-name="transfer" d="M771.368 263.111c-104.178 0-188.632 82.778-188.632 184.889s84.453 184.889 188.632 184.889c104.178 0 188.632-82.778 188.632-184.889 0-49.036-19.874-96.063-55.249-130.736s-83.354-54.153-133.383-54.153v0zM741.282 513.127c9.991 2.786 20.542 3.025 30.653 0.693h0.141c8.733 2.43 18.068 1.691 26.291-2.080 7.269-4.387 12.228-11.66 13.581-19.922h39.896c-3.961 33.673-5.329 48.533-59.702 51.376v16.917c0 10.926-9.036 19.783-20.184 19.783s-20.184-8.857-20.184-19.783v-16.363c-13.699 1.223-27.462-1.543-39.565-7.95-12.721-11.188-19.976-27.159-19.948-43.911 0-15.508 18.297-25.422 31.053-33.973 12.602-7.594 26.414-13.063 40.862-16.178 12.011-2.885 23.755-6.75 35.109-11.556 8.953-5.682 13.85-15.844 12.638-26.231 0-20.43-10.516-22.002-39.896-22.002h-0.024c-10.981-2.423-22.442-1.692-33.011 2.103-5.429 13.302-7.758 27.626-6.814 41.924h-39.825c3.49-38.156-0.66-68.085 59.513-73.147v-17.172c0-10.926 9.036-19.783 20.184-19.783s20.184 8.857 20.184 19.783v16.779c50.836 2.981 59.702 18.165 59.702 51.33-3.77 17.469-14.825 32.596-30.488 41.716-13.111 7.871-27.448 13.586-42.442 16.917-11.698 3.084-23.124 7.087-34.166 11.972-8.184 3.367-13.681 11.026-14.147 19.714-0.207 7.749 3.832 15.013 10.587 19.044v0zM700.632 771.556h47.158v46.222h-471.579v-138.667h-47.158v184.889h565.895v-92.444h47.158l-70.737-92.444-70.737 92.444zM441.263 448c0-102.111-84.453-184.889-188.632-184.889s-188.632 82.778-188.632 184.889c0 102.111 84.453 184.889 188.632 184.889 50.028 0 98.007-19.479 133.383-54.153s55.249-81.701 55.249-130.736v0zM233.108 560.112v-16.363c-13.699 1.223-27.462-1.543-39.565-7.95-12.721-11.188-19.976-27.159-19.948-43.911 0-15.508 18.297-25.422 31.053-33.973 12.602-7.593 26.415-13.062 40.862-16.178 12.011-2.886 23.755-6.751 35.109-11.556 8.944-5.688 13.831-15.849 12.615-26.231 0-20.43-10.516-22.002-39.896-22.002h-0.071c-10.981-2.423-22.442-1.692-33.011 2.103-5.428 13.303-7.756 27.626-6.814 41.924h-39.825c3.49-38.156-0.66-68.085 59.513-73.147v-17.172c0-10.926 9.036-19.783 20.184-19.783s20.184 8.857 20.184 19.783v16.779c50.836 2.981 59.678 18.165 59.678 51.33-3.77 17.469-14.825 32.596-30.488 41.716-13.11 7.873-27.447 13.588-42.442 16.917-11.691 3.084-23.109 7.088-34.142 11.972-8.201 3.409-13.676 11.13-14.077 19.852-0.208 7.731 3.81 14.983 10.54 19.020 9.991 2.786 20.542 3.025 30.653 0.693h0.165c8.741 2.436 18.085 1.697 26.314-2.080 7.269-4.387 12.228-11.66 13.581-19.922h39.896c-3.961 33.673-5.329 48.533-59.678 51.376v16.802c0 10.932-9.042 19.795-20.195 19.795s-20.195-8.862-20.195-19.795v0zM323.368 124.444h-47.158v-46.222h471.579v138.667h47.158v-184.889h-565.895v92.444h-47.158l70.737 92.444 70.737-92.444z" />
<glyph unicode="&#xe91d;" glyph-name="update" d="M955.457 498.027c-20.477-0.666-36.538-17.554-35.858-37.717 3.597-107.286-35.445-209.524-109.945-287.895-74.5-78.363-175.525-123.477-284.476-127.020-4.541-0.146-9.062-0.219-13.582-0.219-142.161 0.006-273.12 72.707-347.080 190.5l128.956-34.049c19.791-5.223 40.138 6.336 45.445 25.828 5.307 19.488-6.435 39.52-26.226 44.752l-209.739 55.373c-9.504 2.505-19.634 1.195-28.153-3.645-8.524-4.84-14.743-12.822-17.292-22.18l-56.231-206.534c-5.307-19.488 6.435-39.52 26.226-44.749 3.22-0.85 6.45-1.26 9.632-1.26 16.378 0 31.37 10.767 35.813 27.084l31.607 116.080c87.927-136.334 240.978-220.273 407.024-220.268 5.334 0 10.697 0.085 16.049 0.26 128.763 4.191 248.161 57.501 336.204 150.115s134.186 213.446 129.932 340.238c-0.674 20.161-17.835 36.022-38.307 35.306zM992.79 842.342c-20.044 4.235-39.761-8.338-44.056-28.066l-26.962-123.895c-85.844 144.205-243.409 234.697-416.1 234.697-265.952 0-482.319-213.052-482.319-474.935 0-20.175 16.61-36.533 37.101-36.533 20.489 0 37.101 16.358 37.101 36.533 0 221.592 183.076 401.868 408.116 401.868 146.711 0 280.529-77.167 352.983-200.037l-123.693 26.102c-20.041 4.229-39.764-8.341-44.050-28.069-4.292-19.728 8.468-39.152 28.503-43.378l212.33-44.805c3.603-0.763 7.269-0.982 10.881-0.684 6.016 0.5 11.881 2.443 17.046 5.734 8.263 5.264 14.063 13.544 16.123 23.016l45.504 209.077c4.289 19.725-8.474 39.143-28.509 43.375z" />
<glyph unicode="&#xe91e;" glyph-name="webcopy" d="M869.521 68.182h-556.137c-6.986-0.042-13.702 2.689-18.671 7.59s-7.784 11.573-7.825 18.546h582.633v548.864c14.54 0.077 26.392-11.622 26.479-26.136v-522.727c-0.037-6.972-2.848-13.643-7.814-18.545s-11.68-7.633-18.664-7.591v0zM816.547 120.455h-582.615c-6.984-0.042-13.698 2.689-18.664 7.591s-7.777 11.573-7.814 18.545h609.164v575c14.54 0.077 26.392-11.622 26.479-26.136v-548.864c-0.037-6.984-2.857-13.666-7.839-18.57s-11.714-7.627-18.71-7.566v0zM763.59 172.727h-609.164c-14.519-0.048-26.34 11.642-26.426 26.136v575c0.087 14.515 11.939 26.214 26.479 26.136h609.164c14.54 0.077 26.392-11.622 26.479-26.136v-575c-0.042-6.98-2.861-13.656-7.838-18.559s-11.702-7.629-18.693-7.578v0zM207.453 760.795c-14.42-0.163-25.993-11.936-25.884-26.332s11.858-25.993 26.279-25.939c14.421 0.054 26.083 11.739 26.084 26.135-0.087 14.515-11.939 26.214-26.479 26.136v0zM300.137 760.795c-14.42-0.163-25.993-11.936-25.884-26.332s11.858-25.993 26.279-25.939c14.421 0.054 26.083 11.739 26.084 26.135-0.087 14.515-11.939 26.214-26.479 26.136v0zM392.82 760.795c-14.418-0.173-25.982-11.95-25.867-26.343s11.866-25.985 26.284-25.928c14.419 0.057 26.077 11.741 26.078 26.134-0.042 6.973-2.856 13.645-7.825 18.546s-11.685 7.632-18.671 7.59v0zM763.59 669.318h-609.164v-470.455h609.164v470.455zM498.752 434.091h-264.82v169.886h264.82v-169.886zM684.137 355.682h-450.205v26.136h450.205v-26.136zM617.932 277.273h-384v26.136h384v-26.136zM538.479 460.227h145.658v-26.136h-145.658v26.136zM538.479 603.977h145.658v-104.545h-145.658v104.545z" />
<glyph unicode="&#xe91f;" glyph-name="withdraw" d="M558.494 470.024c-12.235 7.341-24.471 12.235-39.153 14.682-9.788 2.447-22.024 7.341-31.812 12.235-7.341 2.447-12.235 9.788-12.235 17.129s2.447 14.682 9.788 17.129c7.341 2.447 17.129 2.447 24.471 0h4.894c7.341 2.447 14.682 0 22.024-2.447 7.341-4.894 12.235-9.788 12.235-19.576h36.706c-2.447 31.812-4.894 44.047-53.835 46.494v14.682c0 9.788-7.341 17.129-19.576 17.129v0 0c-9.788 0-17.129-7.341-17.129-19.576v-14.682c-12.235 0-24.471-2.447-36.706-7.341-12.235-9.788-17.129-24.471-17.129-41.6 4.894-14.682 14.682-26.918 29.365-31.812 12.235-7.341 24.471-12.235 36.706-14.682 9.788-2.447 22.024-7.341 31.812-9.788 7.341-4.894 12.235-14.682 12.235-24.471 0-19.576-9.788-19.576-36.706-19.576-9.788-2.447-19.576-2.447-29.365 2.447-4.894 12.235-7.341 24.471-7.341 39.153h-36.706c2.447-34.259 0-63.624 53.835-68.518v-17.129c0-9.788 7.341-19.576 19.576-19.576s19.576 7.341 19.576 19.576v14.682c46.494 2.447 53.835 17.129 53.835 46.494-4.894 26.918-14.682 41.6-29.365 48.941v0zM781.176 80.941h-538.353v685.176h-48.941v-734.118h636.235v734.118h-48.941zM267.294 766.118v-660.706h489.412v660.706h-489.412zM512 301.176c-95.435 0-171.294 75.859-171.294 171.294s75.859 171.294 171.294 171.294c95.435 0 171.294-75.859 171.294-171.294s-75.859-171.294-171.294-171.294v0zM903.529 864h-783.059c-14.682 0-24.471-9.788-24.471-24.471v-146.824c0-14.682 9.788-24.471 24.471-24.471h24.471v122.353h734.118v-122.353h24.471c14.682 0 24.471 9.788 24.471 24.471v146.824c0 14.682-9.788 24.471-24.471 24.471v0z" />
<glyph unicode="&#xe920;" glyph-name="help-booking" d="M643.467 680.355h152.935l-183.524 214.109v-183.522c0-18.352 15.294-30.587 30.589-30.587zM515.075 198.144c-6.365-20.117-9.797-41.56-9.797-63.832 0-42.052 12.939-80.868 32.347-113.215h-291.122c-35.582 0-64.694 29.113-64.694 64.694v743.979c0 35.582 29.111 64.694 64.694 64.694h323.469v-194.081c0-35.582 29.113-64.694 64.694-64.694h161.735v-307.295c-25.876 9.703-51.753 16.173-80.866 16.173-78.243 0-146.263-42.35-182.475-105.463h-250.435v-40.96h232.451zM282.624 525.824h409.6v40.96h-409.6v-40.96zM282.624 366.080h409.6v40.96h-409.6v-40.96zM710.59 309.238c-92.718 0-169.984-79.511-169.984-174.927s77.266-174.926 169.984-174.926c92.718 0 169.984 79.511 169.984 174.927s-77.266 174.926-169.984 174.926zM710.584 249.543l36.398-75.854 81.35-12.18-58.879-59.042 13.899-83.387-72.767 39.369-72.776-39.369 13.902 83.387-58.863 59.042 81.361 12.18 36.375 75.854z" />
<glyph unicode="&#xe921;" glyph-name="help-mail" d="M918.721 169.916l-239.849 246.987 240.513 245.626v-492.614h-0.664zM139.379 123.648l241.842 247.668 53.152-53.752c19.932-20.412 43.85-34.020 73.084-34.020s53.152 13.608 73.084 34.020l53.152 53.752 241.842-247.668h-736.156zM876.864 714.24l-344.824-354.491c-6.644-6.804-12.624-10.886-24.583-10.886s-17.939 4.082-24.583 10.886l-344.824 354.491h738.814zM96.193 662.529l240.513-245.626-240.513-246.987v492.614z" />
<glyph unicode="&#xe922;" glyph-name="help-phone" d="M267.141 796.112c-12.98-0.056-25.636-4.061-36.286-11.481-1.080-0.764-109.28-79.261-107.963-123.921 4.003-125.395 125.817-272.779 227.276-374.343s248.79-223.484 374.633-227.487h1.211c44.081 0 121.525 106.884 122.262 107.963 18.658 22.056 16.16 55.003-5.609 73.994-11.244 7.9-134.296 89.847-149.49 99.089-7.075 4.112-15.149 6.19-23.331 6.004-12.567-0.31-24.876-3.633-35.891-9.69-11.85-6.241-47.767-26.701-65.331-36.866-76.826 59.444-145.736 128.468-205.051 205.394 10.006 17.59 30.414 53.508 36.629 65.305 11.605 17.841 12.946 40.478 3.529 59.564-8.953 14.167-90.505 137.93-98.931 149.542-9.11 11.311-23.068 17.601-37.577 16.932v0h-0.079z" />
<glyph unicode="&#xe923;" glyph-name="help-qq" d="M781.489 504.668c7.455 24.998 11.572 51.361 11.572 78.708 0 155.422-128.234 281.421-286.51 281.421-158.22 0-286.51-125.971-286.51-281.421 0-27.347 4.145-53.711 11.572-78.708-36.078-28.467-176.106-151.816-118.498-311.773 0 0 48.734 4.098 88.762 76.796 12.156-46.526 34.798-88.789 65.675-124.114-45.23-13.086-75.911-38.466-75.911-67.589 0-42.51 65.313-76.96 145.842-76.96 54.659 0 102.253 15.9 127.205 39.34 13.741-1.776 27.594-3.005 41.808-3.005 14.242 0 28.122 1.229 41.808 3.005 25.007-23.44 72.573-39.34 127.232-39.34 80.556 0 145.897 34.478 145.897 76.96 0 29.096-30.709 54.503-75.939 67.589 30.848 35.324 53.547 77.588 65.702 124.114 40-72.671 88.679-76.796 88.679-76.796 57.691 159.984-82.337 283.333-118.387 311.773z" />
<glyph unicode="&#xe924;" glyph-name="help-wechat" d="M697.446 628.077c8.503 0 16.877-0.324 25.239-0.816-41.143 129.447-181.873 224.842-349.237 224.842-199.595 0-361.402-135.654-361.402-303.028 0-98.984 56.612-186.837 144.174-242.153l-26.725-103.312 128.155 58.439c28.376-8.021 58.328-13.217 89.355-15.135-6.262 22.909-9.694 46.674-9.694 71.189-0.013 170.912 161.551 309.973 360.134 309.973zM488.99 702.532c30.63 0 55.523-25.151 55.523-56.159 0-31.021-24.893-56.172-55.523-56.172-30.656 0-55.511 25.151-55.511 56.172 0 31.008 24.855 56.159 55.511 56.159zM252.772 590.201c-30.656 0-55.498 25.151-55.498 56.172 0 31.008 24.842 56.159 55.498 56.159 30.669 0 55.511-25.151 55.511-56.159 0-31.021-24.855-56.172-55.511-56.172zM695.5 579.11c-173.216 0-313.651-117.733-313.651-262.963 0-145.243 140.435-263.002 313.651-263.002 43.32 0 84.54 7.36 122.047 20.655l105.797-54.357-23.254 97.442c66.754 48.267 109.075 119.586 109.075 199.276-0.013 145.217-140.422 262.95-313.664 262.95zM602.111 355.875c-29.158 0-52.796 23.92-52.796 53.424 0 29.531 23.638 53.45 52.796 53.45 29.183 0 52.822-23.92 52.822-53.45 0-29.505-23.638-53.424-52.822-53.424zM805.919 355.875c-29.158 0-52.796 23.92-52.796 53.424 0 29.531 23.638 53.45 52.796 53.45 29.183 0 52.822-23.92 52.822-53.45 0-29.505-23.638-53.424-52.822-53.424z" />
<glyph unicode="&#xe925;" glyph-name="login" d="M748.8 742.4h-265.6c-12.8 0-25.6-9.6-25.6-25.6s9.6-25.6 25.6-25.6h240v-521.6h-240c-12.8 0-25.6-9.6-25.6-25.6s9.6-25.6 25.6-25.6h265.6c12.8 0 25.6 9.6 25.6 25.6v572.8c0 12.8-12.8 25.6-25.6 25.6zM470.4 316.8c-9.6-9.6-9.6-25.6 0-35.2 3.2-3.2 9.6-6.4 16-6.4 0 0 0 0 0 0 6.4 0 12.8 3.2 16 6.4l131.2 134.4c9.6 9.6 9.6 25.6 0 35.2l-131.2 134.4c-3.2 3.2-9.6 6.4-16 6.4v0c-6.4 0-12.8-3.2-16-6.4-9.6-9.6-9.6-25.6 0-35.2l89.6-89.6h-316.8c-12.8 0-25.6-9.6-25.6-25.6s9.6-25.6 25.6-25.6h313.6l-86.4-92.8z" />
<glyph unicode="&#xe926;" glyph-name="logout" d="M307.2 406.4h313.6c12.8 0 25.6 9.6 25.6 25.6s-9.6 25.6-25.6 25.6h-313.6l89.6 89.6c9.6 9.6 9.6 25.6 0 35.2-3.2 3.2-9.6 6.4-16 6.4v0c-6.4 0-12.8-3.2-16-6.4l-134.4-134.4c-9.6-9.6-9.6-25.6 0-35.2l131.2-134.4c3.2-3.2 9.6-6.4 16-6.4 0 0 0 0 0 0 6.4 0 12.8 3.2 16 6.4 9.6 9.6 9.6 25.6 0 35.2l-86.4 92.8zM748.8 742.4h-265.6c-12.8 0-25.6-9.6-25.6-25.6s9.6-25.6 25.6-25.6h240v-521.6h-240c-12.8 0-25.6-9.6-25.6-25.6s9.6-25.6 25.6-25.6h265.6c12.8 0 25.6 9.6 25.6 25.6v572.8c0 12.8-12.8 25.6-25.6 25.6z" />
<glyph unicode="&#xe927;" glyph-name="menu" d="M848 640h-640c-19.2 0-32 12.8-32 32s12.8 32 32 32h640c19.2 0 32-12.8 32-32s-12.8-32-32-32zM848 384h-640c-19.2 0-32 12.8-32 32s12.8 32 32 32h640c19.2 0 32-12.8 32-32s-12.8-32-32-32zM848 128h-640c-19.2 0-32 12.8-32 32s12.8 32 32 32h640c19.2 0 32-12.8 32-32s-12.8-32-32-32z" />
<glyph unicode="&#xe928;" glyph-name="home_outline" d="M899.2 393.6c0 0 3.2 0 3.2 3.2 19.2 12.8 25.6 32 28.8 41.6 3.2 19.2-6.4 38.4-22.4 57.6-22.4 25.6-268.8 281.6-288 304-9.6 9.6-51.2 60.8-102.4 60.8s-96-51.2-102.4-60.8c-22.4-22.4-268.8-281.6-291.2-304-16-19.2-25.6-38.4-22.4-57.6 0-12.8 6.4-28.8 28.8-41.6 0 0 3.2 0 3.2-3.2 9.6-6.4 25.6-9.6 41.6-6.4v-240c-28.8-3.2-51.2-28.8-51.2-57.6 0-32 25.6-57.6 57.6-57.6h665.6c32 0 57.6 25.6 57.6 57.6 0 28.8-22.4 54.4-51.2 57.6v240c12.8-3.2 28.8 0 44.8 6.4zM560 99.2h-89.6v166.4h89.6v-166.4zM809.6 476.8c-12.8-6.4-19.2-16-19.2-28.8v-329.6c0-6.4 3.2-12.8 6.4-19.2h-172.8v169.6c16 6.4 25.6 22.4 25.6 41.6 0 25.6-19.2 44.8-44.8 44.8h-179.2c-25.6 0-44.8-19.2-44.8-44.8 0-12.8 3.2-22.4 12.8-32 3.2-3.2 6.4-6.4 12.8-9.6v-169.6h-172.8c3.2 6.4 6.4 12.8 6.4 19.2v329.6c0 12.8-6.4 25.6-19.2 28.8-9.6 3.2-22.4 3.2-28.8-3.2 67.2 73.6 265.6 278.4 268.8 281.6 0 0 0 3.2 3.2 3.2 9.6 12.8 35.2 38.4 54.4 38.4 16 0 41.6-22.4 54.4-38.4 0 0 0-3.2 3.2-3.2 3.2-3.2 201.6-211.2 268.8-281.6-16 6.4-25.6 9.6-35.2 3.2z" />
<glyph unicode="&#xe929;" glyph-name="account" d="M512 32c-358.4 0-377.6 115.2-380.8 137.6 0 172.8 115.2 275.2 249.6 313.6-48 38.4-76.8 96-76.8 160 0 112 92.8 204.8 204.8 204.8s204.8-92.8 204.8-204.8c0 0 0 0 0 0 0-64-28.8-121.6-73.6-160 169.6-48 249.6-185.6 249.6-313.6 0-22.4-19.2-137.6-377.6-137.6zM195.2 172.8c3.2-6.4 41.6-76.8 316.8-76.8s313.6 70.4 316.8 76.8c-3.2 179.2-163.2 262.4-313.6 262.4 0 0 0 0-3.2 0-150.4 0-313.6-80-316.8-262.4zM828.8 169.6c0 0 0 0 0 0s0 0 0 0zM828.8 176c0 0 0-3.2 0 0 0-3.2 0-3.2 0 0 0 0 0 0 0 0zM512 784c-76.8 0-140.8-64-140.8-140.8s64-140.8 140.8-140.8c0 0 0 0 0 0 76.8 0 140.8 64 140.8 140.8v0c0 76.8-64 140.8-140.8 140.8z" />
<glyph unicode="&#xe92a;" glyph-name="more" d="M512 864c-240 0-432-192-432-432s192-432 432-432 432 192 432 432-192 432-432 432zM512 67.2c-201.6 0-364.8 163.2-364.8 364.8s163.2 364.8 364.8 364.8 364.8-163.2 364.8-364.8-163.2-364.8-364.8-364.8zM675.2 486.4c-28.8 0-54.4-25.6-54.4-54.4s25.6-54.4 54.4-54.4c28.8 0 54.4 25.6 54.4 54.4s-25.6 54.4-54.4 54.4zM512 486.4c-28.8 0-54.4-25.6-54.4-54.4s25.6-54.4 54.4-54.4c28.8 0 54.4 25.6 54.4 54.4s-25.6 54.4-54.4 54.4zM348.8 486.4c-28.8 0-54.4-25.6-54.4-54.4s25.6-54.4 54.4-54.4c28.8 0 54.4 25.6 54.4 54.4s-22.4 54.4-54.4 54.4z" />
<glyph unicode="&#xe92b;" glyph-name="mymoney" d="M483.2 297.6h54.4c16 0 32-12.8 32-28.8s-12.8-28.8-32-28.8h-99.2c-16 0-28.8-12.8-28.8-28.8s12.8-28.8 28.8-28.8h41.6v-28.8c0-16 12.8-28.8 28.8-28.8s28.8 12.8 28.8 28.8v28.8c48 0 86.4 38.4 86.4 86.4s-41.6 86.4-89.6 86.4h-54.4c-16 0-32 12.8-32 28.8s12.8 28.8 32 28.8h96c16 0 28.8 12.8 28.8 28.8s-12.8 28.8-28.8 28.8h-41.6v28.8c0 16-12.8 28.8-28.8 28.8s-28.8-12.8-28.8-28.8v-28.8c-48 0-86.4-38.4-86.4-86.4 6.4-48 44.8-86.4 92.8-86.4zM857.6 384c-22.4 54.4-57.6 102.4-96 150.4-48 54.4-92.8 92.8-118.4 112l92.8 163.2c0 9.6 0 22.4-9.6 32-25.6 22.4-54.4 35.2-83.2 35.2s-54.4-9.6-73.6-19.2h-3.2c-19.2-6.4-38.4-16-51.2-9.6-44.8 16-80 25.6-112 25.6-44.8 0-80-16-115.2-51.2-9.6-9.6-12.8-25.6-3.2-35.2l99.2-144c-25.6-19.2-70.4-54.4-118.4-108.8-41.6-48-73.6-99.2-99.2-150.4-28.8-67.2-44.8-134.4-44.8-204.8 0-96 80-172.8 179.2-172.8h422.4c99.2 0 179.2 76.8 179.2 172.8 0 70.4-16 137.6-44.8 204.8zM432 608h163.2c16-12.8 70.4-51.2 121.6-112 83.2-99.2 128-204.8 128-316.8 0-28.8-12.8-57.6-32-80-22.4-22.4-54.4-35.2-86.4-35.2h-425.6c-67.2 0-121.6 51.2-121.6 118.4 0 112 41.6 220.8 128 316.8 48 54.4 96 89.6 124.8 108.8zM585.6 662.4h-147.2l-92.8 134.4c41.6 32 80 22.4 150.4-3.2 9.6-3.2 19.2-3.2 28.8-3.2 22.4 0 44.8 9.6 64 16s35.2 16 51.2 16c6.4 0 16 0 28.8-6.4l-83.2-153.6z" />
<glyph unicode="&#xe92c;" glyph-name="search" d="M790.4 195.2l-140.8 144c35.2 41.6 57.6 96 57.6 153.6 0 131.2-108.8 236.8-240 236.8s-240-105.6-240-236.8c0-131.2 108.8-236.8 240-236.8 51.2 0 96 16 137.6 41.6l144-147.2c6.4-6.4 12.8-9.6 22.4-9.6s16 3.2 22.4 9.6c9.6 16 9.6 35.2-3.2 44.8zM464 668.8c99.2 0 179.2-80 179.2-176s-80-176-179.2-176c-99.2 0-179.2 80-179.2 176 3.2 99.2 83.2 176 179.2 176z" />
<glyph unicode="&#xe92d;" glyph-name="service_outline" d="M694.4 102.4c-108.8 3.2-227.2 102.4-310.4 185.6s-182.4 201.6-185.6 307.2c0 44.8 64 96 92.8 118.4 16 9.6 28.8 12.8 44.8 12.8 19.2 0 38.4-6.4 48-22.4 6.4-9.6 70.4-108.8 80-118.4 12.8-25.6 9.6-51.2-3.2-73.6-3.2-6.4-12.8-22.4-19.2-35.2 38.4-48 83.2-92.8 134.4-134.4 12.8 9.6 32 16 38.4 22.4 12.8 6.4 25.6 9.6 38.4 9.6 9.6 0 22.4-3.2 32-6.4 12.8-6.4 108.8-70.4 118.4-80 28.8-25.6 32-67.2 9.6-92.8-9.6-6.4-70.4-92.8-118.4-92.8zM339.2 678.4c0 0 0 0 0 0v0c-6.4 0-12.8-3.2-16-3.2-38.4-28.8-73.6-64-73.6-76.8 3.2-70.4 64-169.6 169.6-275.2 108.8-108.8 204.8-169.6 275.2-169.6 12.8 0 48 38.4 76.8 73.6 6.4 9.6 6.4 19.2 0 25.6-6.4 3.2-102.4 67.2-112 73.6 0 0-3.2 0-6.4 0-6.4 0-12.8-3.2-16-3.2-9.6-6.4-38.4-19.2-51.2-28.8l-16-6.4-12.8 9.6c-60.8 48-118.4 102.4-163.2 163.2l-9.6 12.8 6.4 12.8c9.6 16 25.6 41.6 28.8 51.2 6.4 9.6 6.4 16 3.2 25.6-6.4 9.6-70.4 105.6-76.8 112 0 3.2-3.2 3.2-6.4 3.2z" />
<glyph unicode="&#xe92e;" glyph-name="coin_fill" d="M531.2 419.2v-124.8c25.6 9.6 44.8 35.2 44.8 60.8s-19.2 54.4-44.8 64zM444.8 534.4c0-28.8 19.2-51.2 44.8-60.8v121.6c-28.8-6.4-44.8-32-44.8-60.8zM508.8 796.8c-192 0-348.8-160-348.8-352s156.8-348.8 348.8-348.8 352 156.8 352 348.8c0 192-156.8 352-352 352zM531.2 246.4v-35.2c0-12.8-9.6-22.4-22.4-22.4s-22.4 9.6-22.4 22.4v35.2c-28.8 6.4-54.4 22.4-70.4 48-6.4 9.6-3.2 25.6 6.4 32s25.6 3.2 32-6.4c6.4-12.8 19.2-22.4 32-25.6v131.2c-51.2 9.6-89.6 57.6-89.6 108.8 0 54.4 38.4 99.2 89.6 108.8v38.4c0 12.8 9.6 22.4 22.4 22.4s22.4-9.6 22.4-22.4v-35.2c28.8-6.4 54.4-22.4 70.4-48 6.4-9.6 3.2-25.6-6.4-32s-25.6-3.2-32 6.4c-6.4 12.8-19.2 22.4-32 25.6v-131.2c51.2-9.6 89.6-54.4 89.6-108.8s-38.4-102.4-89.6-112z" />
<glyph unicode="&#xe92f;" glyph-name="coin_outline" d="M534.4 467.2v131.2c12.8-6.4 25.6-12.8 32-25.6 6.4-9.6 22.4-12.8 32-6.4s12.8 22.4 6.4 32c-16 25.6-41.6 41.6-70.4 48v35.2c0 12.8-9.6 22.4-22.4 22.4s-22.4-9.6-22.4-22.4v-35.2c-54.4-9.6-92.8-57.6-92.8-112s38.4-99.2 89.6-108.8v-131.2c-12.8 6.4-25.6 12.8-32 25.6-6.4 9.6-22.4 12.8-32 6.4s-12.8-22.4-6.4-32c16-25.6 41.6-41.6 70.4-48v-35.2c0-12.8 9.6-22.4 22.4-22.4s22.4 9.6 22.4 22.4v35.2c51.2 9.6 89.6 54.4 89.6 108.8 3.2 54.4-35.2 102.4-86.4 112zM444.8 534.4c0 28.8 19.2 51.2 44.8 60.8v-124.8c-28.8 12.8-44.8 38.4-44.8 64zM534.4 294.4v124.8c25.6-9.6 44.8-35.2 44.8-60.8-3.2-28.8-19.2-54.4-44.8-64zM508.8 796.8c-192 0-348.8-156.8-348.8-352 0-192 156.8-348.8 348.8-348.8s348.8 156.8 348.8 348.8c3.2 195.2-153.6 352-348.8 352zM508.8 140.8c-166.4 0-304 137.6-304 304s137.6 304 304 304 304-137.6 304-304-134.4-304-304-304z" />
<glyph unicode="&#xe930;" glyph-name="close" d="M550.4 441.6l230.4 230.4c3.2 3.2 6.4 9.6 6.4 16s-3.2 12.8-6.4 16c-9.6 9.6-22.4 9.6-32 0l-230.4-230.4-230.4 230.4c-9.6 6.4-22.4 6.4-32 0-3.2-6.4-6.4-9.6-6.4-16s3.2-12.8 6.4-16l227.2-227.2-227.2-230.4c-9.6-9.6-9.6-22.4 0-32s22.4-9.6 32 0l230.4 230.4 230.4-230.4c3.2-3.2 9.6-6.4 16-6.4s12.8 3.2 16 6.4c9.6 9.6 9.6 22.4 0 32l-230.4 227.2z" />
<glyph unicode="&#xe931;" glyph-name="next" d="M620.8 633.6c-6.4 6.4-19.2 6.4-28.8 0-6.4-6.4-6.4-19.2 0-28.8l140.8-137.6h-460.8c-9.6 0-19.2-9.6-19.2-19.2s9.6-19.2 19.2-19.2h460.8l-137.6-140.8c-6.4-6.4-6.4-19.2 0-28.8 6.4-6.4 19.2-6.4 28.8 0l169.6 176c6.4 6.4 6.4 19.2 0 28.8l-172.8 169.6z" />
<glyph unicode="&#xe932;" glyph-name="back" d="M435.2 633.6c6.4 6.4 19.2 6.4 28.8 0 6.4-6.4 6.4-19.2 0-28.8l-140.8-137.6h460.8c9.6 0 19.2-9.6 19.2-19.2s-9.6-19.2-19.2-19.2h-460.8l137.6-140.8c6.4-6.4 6.4-19.2 0-28.8-6.4-6.4-19.2-6.4-28.8 0l-169.6 176c-6.4 6.4-6.4 19.2 0 28.8l172.8 169.6z" />
<glyph unicode="&#xe933;" glyph-name="next-arrow" d="M438.4 608c-12.8 0-22.4-9.6-22.4-19.2v-281.6c0-9.6 9.6-19.2 22.4-19.2 6.4 0 9.6 3.2 16 6.4l150.4 140.8c3.2 3.2 6.4 9.6 6.4 12.8s-3.2 9.6-6.4 12.8l-150.4 140.8c-6.4 3.2-12.8 6.4-16 6.4v0z" />
<glyph unicode="&#xe934;" glyph-name="icon-search-list" horiz-adv-x="981" d="M951.439 16.999l-131.23 134.483c33.751 39.557 52.243 89.31 52.243 141.102 0 120.984-99.887 219.416-222.706 219.416-122.759 0-222.646-98.433-222.646-219.416 0-121.019 99.887-219.452 222.646-219.452 46.095 0 90.060 13.69 127.587 39.736l132.271-135.557c5.53-5.688 12.949-8.801 20.948-8.801 7.515 0 14.643 2.838 20.089 8.002 11.581 10.948 11.908 29.074 0.799 40.487zM649.745 454.746c90.762 0 164.606-72.769 164.606-162.162 0-89.441-73.844-162.198-164.606-162.198-90.714 0-164.546 72.757-164.546 162.198 0 89.393 73.832 162.162 164.546 162.162zM170.408 809.85h360.285c15.441 0 25.735-10.371 25.735-25.928s-10.294-25.928-25.735-25.928h-360.285c-15.441 0-25.735 10.371-25.735 25.928s10.294 25.928 25.735 25.928v0zM170.408 680.211h360.285c15.441 0 25.735-10.371 25.735-25.928s-10.294-25.928-25.735-25.928h-360.285c-15.441 0-25.735 10.371-25.735 25.928s10.294 25.928 25.735 25.928v0zM515.252 550.572h-344.844c-15.441 0-25.735-10.371-25.735-25.928s10.294-25.928 25.735-25.928h270.214c20.588 20.742 46.322 38.892 74.631 51.856v0zM381.432 420.933h-211.024c-15.441 0-25.735-10.371-25.735-25.928s10.294-25.928 25.735-25.928h190.437c5.147 18.149 12.867 36.299 20.588 51.856v0zM350.551 291.294h-180.143c-15.441 0-25.735-10.371-25.735-25.928s10.294-25.928 25.735-25.928h185.29c-2.573 15.557-5.147 33.706-5.147 51.856v0zM659.367 939.489h-617.632c-15.441 0-25.735-10.371-25.735-25.928v-777.834c0-15.557 10.294-25.928 25.735-25.928h373.153c-12.867 15.557-23.161 33.706-33.455 51.856h-313.963v725.978h566.163v-311.133c18.014 0 36.029-2.593 51.469-5.186v342.247c0 15.557-10.294 25.928-25.735 25.928v0z" />
<glyph unicode="&#xe935;" glyph-name="icon-recover" horiz-adv-x="1095" d="M946.317 794.041c-91.807 91.807-215.393 141.241-346.041 141.241-134.179 0-257.766-52.966-349.572-148.303-14.124-14.124-14.124-38.841 0-52.966s38.841-14.124 52.966 0c77.683 81.214 183.614 123.586 296.607 123.586 0 0 0 0 0 0 109.462 0 215.393-42.372 293.076-120.055s123.586-183.614 123.586-293.076c0-229.517-187.145-413.131-416.662-413.131-222.455 0-406.069 176.552-416.662 395.476l24.717-24.717c14.124-14.124 35.31-14.124 52.966 0 7.062 7.062 10.593 17.655 10.593 24.717 0 10.593-3.531 17.655-10.593 24.717l-84.745 84.745c-14.124 14.124-38.841 14.124-52.966 0l-88.276-81.214c-7.062-7.062-10.593-17.655-10.593-24.717 0-10.593 3.531-17.655 10.593-24.717 14.124-14.124 38.841-14.124 52.966 0l24.717 24.717c3.531-123.586 56.497-236.579 141.241-324.855 91.807-91.807 215.393-141.241 346.041-141.241s254.234 49.434 346.041 141.241c91.807 91.807 141.241 215.393 141.241 346.041 0 127.117-49.434 247.172-141.241 342.51zM600.276 758.731c-21.186 0-38.841-17.655-38.841-38.841v-49.434h-3.531c-74.152 0-130.648-60.028-130.648-130.648s60.028-130.648 130.648-130.648h84.745c28.248 0 52.966-24.717 52.966-52.966s-24.717-52.966-52.966-52.966h-151.834c-21.186 0-38.841-17.655-38.841-38.841s17.655-38.841 38.841-38.841h70.621v-49.434c0-21.186 17.655-38.841 38.841-38.841s38.841 17.655 38.841 38.841v49.434h3.531c70.621 0 130.648 60.028 130.648 130.648 0 74.152-60.028 130.648-130.648 130.648h-84.745c-28.248 0-52.966 24.717-52.966 52.966s24.717 52.966 52.966 52.966h148.303c21.186 0 38.841 17.655 38.841 38.841s-17.655 38.841-38.841 38.841h-67.090v49.434c0 21.186-17.655 38.841-38.841 38.841z" />
<glyph unicode="&#xe936;" glyph-name="icon-info" d="M507.345 960c-279.273 0-507.345-228.073-507.345-507.345s228.073-507.345 507.345-507.345c279.273 0 507.345 228.073 507.345 507.345 4.655 279.273-223.418 507.345-507.345 507.345zM507.345 5.818c-242.036 0-442.182 200.145-442.182 442.182s200.145 442.182 442.182 442.182 442.182-200.145 442.182-442.182-195.491-442.182-442.182-442.182zM563.2 662.109c0-30.848-25.007-55.855-55.855-55.855s-55.855 25.007-55.855 55.855c0 30.848 25.007 55.855 55.855 55.855s55.855-25.007 55.855-55.855zM502.691 145.455c-23.273 0-37.236 18.618-37.236 37.236v316.509c0 23.273 18.618 37.236 37.236 37.236s37.236-18.618 37.236-37.236v-316.509c4.655-18.618-13.964-37.236-37.236-37.236z" />
<glyph unicode="&#xe937;" glyph-name="Promotions_line" d="M528-28.8c-54.4 0-112 9.6-163.2 32-9.6 3.2-16 12.8-16 22.4v19.2c0 9.6 3.2 16 9.6 22.4 0 0 51.2 38.4 86.4 124.8-35.2-22.4-76.8-41.6-121.6-41.6-121.6 0-227.2 118.4-227.2 256 0 128 150.4 262.4 156.8 268.8l256 268.8c9.6 9.6 28.8 9.6 38.4 0l256-268.8c6.4-3.2 153.6-140.8 153.6-268.8 0-137.6-105.6-256-227.2-256-44.8 0-86.4 19.2-121.6 41.6 35.2-86.4 86.4-124.8 86.4-124.8 6.4-6.4 9.6-12.8 9.6-19.2v-19.2c0-9.6-6.4-19.2-16-22.4-48-25.6-102.4-35.2-160-35.2zM409.6 41.6c80-25.6 163.2-25.6 243.2 0-28.8 28.8-89.6 99.2-115.2 224-3.2 12.8 3.2 22.4 12.8 28.8s22.4 3.2 32-6.4c28.8-32 86.4-86.4 150.4-86.4 92.8 0 176 99.2 176 204.8s-137.6 230.4-137.6 230.4l-243.2 252.8-236.8-249.6c-3.2-3.2-140.8-128-140.8-233.6 0-108.8 83.2-204.8 176-204.8 64 0 121.6 54.4 150.4 86.4 6.4 9.6 19.2 9.6 32 6.4 9.6-6.4 16-16 12.8-28.8-25.6-124.8-83.2-195.2-112-224z" />
<glyph unicode="&#xe938;" glyph-name="rectangle" horiz-adv-x="640" d="M565.152 448l16.859-16.859-437.517-437.517-145.636 145.636 308.74 308.74-308.74 308.74 145.636 145.636 437.517-437.517-16.859-16.859z" />
<glyph unicode="&#xe939;" glyph-name="icon-fishing" d="M956.8 147.2l-112 188.8c0 0-41.6-51.2-121.6-102.4 3.2-9.6 6.4-22.4 6.4-32 0-51.2-44.8-96-96-96-41.6 0-73.6 22.4-86.4 54.4-48-9.6-102.4-19.2-160-19.2-313.6 0-384 230.4-384 230.4l76.8 35.2-80 38.4c0 0 19.2 268.8 332.8 268.8 32 44.8 96 76.8 163.2 76.8 105.6 0 188.8-70.4 188.8-153.6 0-6.4 0-16-3.2-19.2 118.4-76.8 156.8-172.8 156.8-172.8l112 153.6c160-169.6 6.4-451.2 6.4-451.2v0zM230.4 608c-22.4 0-35.2-19.2-35.2-35.2 0-22.4 19.2-35.2 35.2-35.2s35.2 19.2 35.2 35.2c3.2 16-12.8 35.2-35.2 35.2z" />
<glyph unicode="&#xe93a;" glyph-name="icon-help-phone" d="M944.356 33.849c0 0 0 0 0 0 0-22.756-18.204-40.96-40.96-40.96 0 0-186.596-22.756-380.018-22.756-197.973 0-402.773 22.756-402.773 22.756-22.756 0-40.96 18.204-40.96 40.96 0 0 0 0 0 0v0c0 0 0 147.911 106.951 202.524 68.267 34.133 40.96 6.827 125.156 40.96s93.298 43.236 93.298 43.236l22.756 93.298c0 0-29.582 11.378-45.511 56.889 29.582-15.929 61.44-20.48 81.92-22.756 0 0 0 0 0 0 0-13.653 9.102-22.756 22.756-22.756h45.511c13.653 0 22.756 9.102 22.756 22.756s-9.102 22.756-22.756 22.756h-45.511c-43.236 0-86.471 18.204-111.502 31.858 0 2.276 0 2.276 0 2.276-2.276 0-2.276 0-4.551 0-9.102 4.551-15.929 9.102-18.204 11.378-9.102 11.378-15.929 27.307-18.204 38.684 0 18.204 2.276 65.991 25.031 61.44-4.551 36.409-4.551 86.471-2.276 102.4 9.102 61.44 63.716 111.502 154.738 116.053 106.951-4.551 145.636-54.613 150.187-116.053 2.276-18.204 2.276-65.991-2.276-102.4 25.031 4.551 25.031-43.236 25.031-61.44s-20.48-54.613-40.96-50.062c-9.102-75.093-54.613-91.022-54.613-91.022l22.756-93.298c0 0 9.102-6.827 93.298-40.96s56.889-9.102 125.156-43.236c113.778-54.613 113.778-202.524 113.778-202.524v0zM762.311 527.644c0-18.204-15.929-34.133-34.133-34.133s-34.133 15.929-34.133 34.133v91.022c0 18.204 15.929 34.133 34.133 34.133 2.276 0 4.551 0 6.827-2.276-13.653 72.818-59.164 207.076-223.004 207.076s-209.351-134.258-223.004-207.076c2.276 2.276 4.551 2.276 6.827 2.276 18.204 0 34.133-15.929 34.133-34.133v-91.022c0-18.204-15.929-34.133-34.133-34.133s-34.133 15.929-34.133 34.133v91.022c0 0 0 0 0 2.276 6.827 314.027 250.311 304.924 250.311 304.924s243.484 9.102 250.311-304.924c0 0 0 0 0-2.276v-11.378c0 0 0 0 0 0v0-79.644z" />
<glyph unicode="&#xe93b;" glyph-name="icon-problem" d="M512-7.111c-250.311 0-455.111 204.8-455.111 455.111s204.8 455.111 455.111 455.111 455.111-204.8 455.111-455.111-204.8-455.111-455.111-455.111zM468.764 188.587c11.378-9.102 25.031-13.653 38.684-13.653s27.307 4.551 38.684 13.653c11.378 9.102 15.929 22.756 15.929 38.684s-4.551 27.307-15.929 38.684c-11.378 11.378-22.756 15.929-38.684 15.929s-29.582-4.551-38.684-15.929c-11.378-11.378-15.929-22.756-15.929-38.684s4.551-29.582 15.929-38.684zM671.289 648.249c-13.653 22.756-36.409 38.684-61.44 52.338-27.307 13.653-56.889 18.204-93.298 18.204-38.684 0-70.542-6.827-100.124-22.756s-50.062-34.133-63.716-59.164c-13.653-22.756-22.756-45.511-22.756-70.542 0-11.378 4.551-20.48 13.653-31.858 9.102-9.102 20.48-13.653 34.133-13.653 22.756 0 38.684 13.653 47.787 40.96 9.102 25.031 20.48 45.511 31.858 59.164 13.653 13.653 31.858 20.48 59.164 20.48 22.756 0 40.96-6.827 56.889-20.48 13.653-13.653 22.756-29.582 22.756-47.787 0-9.102-2.276-18.204-6.827-27.307s-11.378-15.929-18.204-22.756c-6.827-6.827-18.204-15.929-34.133-29.582-18.204-15.929-31.858-29.582-43.236-40.96s-18.204-25.031-25.031-38.684c-6.827-13.653-9.102-31.858-9.102-52.338 0-15.929 4.551-27.307 13.653-36.409s18.204-11.378 31.858-11.378c25.031 0 38.684 11.378 43.236 36.409 2.276 11.378 4.551 20.48 6.827 25.031s2.276 9.102 4.551 13.653c2.276 4.551 6.827 9.102 11.378 15.929 4.551 4.551 11.378 11.378 20.48 20.48 29.582 27.307 50.062 45.511 61.44 56.889s20.48 25.031 29.582 40.96c9.102 15.929 13.653 34.133 13.653 54.613-2.276 25.031-9.102 50.062-25.031 70.542z" />
<glyph unicode="&#xe93c;" glyph-name="icon-news" d="M773.12 64l-35.84 35.84c81.92 92.16 133.12 215.040 133.12 348.16s-51.2 256-133.12 348.16l35.84 35.84c92.16-102.4 148.48-235.52 148.48-384s-56.32-281.6-148.48-384zM675.84 163.84l-35.84 35.84c56.32 66.56 92.16 151.040 92.16 245.76s-35.84 179.2-92.16 245.76l35.84 35.84c66.56-74.24 104.96-174.080 104.96-284.16s-40.96-202.24-104.96-279.040zM576 266.24l-38.4 35.84c30.72 40.96 51.2 89.6 51.2 145.92 0 53.76-17.92 104.96-51.2 145.92l35.84 35.84c40.96-48.64 66.56-112.64 66.56-181.76s-25.6-133.12-64-181.76zM422.4 240.64c-7.68 0-15.36 2.56-23.040 7.68v0l-130.56 97.28h-128c-20.48 0-38.4 15.36-38.4 38.4v130.56c0 20.48 17.92 38.4 38.4 38.4v0h128l130.56 107.52c7.68 5.12 15.36 7.68 23.040 7.68 20.48 0 38.4-17.92 38.4-38.4v-348.16c0-23.040-17.92-40.96-38.4-40.96z" />
<glyph unicode="&#xe93d;" glyph-name="icon-keyboard" d="M913.723 188.062h-803.446c-17.329 0-31.508 14.178-31.508 31.508v409.6c0 17.329 14.178 31.508 31.508 31.508h362.338v15.754c0 17.329 14.178 31.508 31.508 31.508h31.508c17.329 0 31.508-14.178 31.508-31.508v-15.754h346.585c17.329 0 31.508-14.178 31.508-31.508v-409.6c0-17.329-14.178-31.508-31.508-31.508zM220.554 566.154h-63.015v-63.015h63.015v63.015zM220.554 455.877h-63.015v-63.015h63.015v63.015zM157.538 345.6v-63.015h157.538v63.015h-157.538zM330.831 566.154h-63.015v-63.015h63.015v63.015zM330.831 455.877h-63.015v-63.015h63.015v63.015zM441.108 566.154h-63.015v-63.015h63.015v63.015zM441.108 455.877h-63.015v-63.015h63.015v63.015zM551.385 566.154h-63.015v-63.015h63.015v63.015zM551.385 455.877h-63.015v-63.015h63.015v63.015zM661.662 566.154h-63.015v-63.015h63.015v63.015zM661.662 455.877h-63.015v-63.015h63.015v63.015zM661.662 345.6h-299.323v-63.015h299.323v63.015zM771.938 566.154h-63.015v-63.015h63.015v63.015zM866.462 455.877v110.277h-47.262v-110.277h-110.277v-63.015h157.538v63.015zM866.462 345.6h-157.538v-63.015h157.538v63.015z" />
<glyph unicode="&#xe93e;" glyph-name="icon-bunny" d="M892.8 80c0-96-169.6-144-380.8-144s-380.8 41.6-380.8 144c0 128 128 201.6 297.6 220.8v32c-22.4 16-38.4 35.2-54.4 60.8-102.4-51.2-156.8 35.2-156.8 35.2 22.4 0 54.4-28.8 83.2 163.2 9.6 64 35.2 105.6 64 137.6-9.6 28.8-22.4 67.2-28.8 112-9.6 60.8-160-41.6-160-41.6-16 22.4 38.4 137.6 70.4 144 54.4 12.8 188.8 51.2 217.6-80 6.4-28.8 6.4-54.4 6.4-76.8 22.4 6.4 41.6 6.4 41.6 6.4s12.8 0 35.2-6.4c0 19.2 0 44.8 6.4 73.6 25.6 134.4 144 92.8 192 80 28.8-6.4 76.8-121.6 60.8-144 0 0-128 99.2-137.6 41.6-6.4-38.4-12.8-73.6-22.4-99.2 35.2-28.8 67.2-76.8 80-147.2 28.8-188.8 64-160 83.2-160 0 0-54.4-80-153.6-35.2-16-25.6-35.2-51.2-57.6-67.2v-32c169.6-16 294.4-92.8 294.4-217.6z" />
<glyph unicode="&#xe93f;" glyph-name="bnav-home" d="M993.28 402.944c-6.144-6.144-14.336-8.192-20.48-8.192-8.192 0-16.384 4.096-22.528 10.24l-49.152 51.2v-458.752c0-16.384-24.576-40.96-40.96-40.96h-194.56c-16.384 0-30.72 14.336-30.72 30.72v317.44h-245.76v-317.44c0-16.384-14.336-30.72-30.72-30.72h-194.56c-16.384 0-40.96 24.576-40.96 40.96v458.752l-49.152-51.2c-12.288-12.288-30.72-12.288-43.008 0s-12.288 30.72 0 43.008l458.752 481.28c6.144 6.144 14.336 10.24 22.528 10.24s16.384-4.096 22.528-10.24l458.752-483.328c12.288-12.288 12.288-30.72 0-43.008zM512 863.744l-329.728-346.112c0-2.048 2.048-4.096 2.048-8.192v-491.52h143.36v307.2c0 16.384 24.576 40.96 40.96 40.96h286.72c16.384 0 40.96-24.576 40.96-40.96v-307.2h143.36v491.52c0 4.096 0 6.144 2.048 8.192l-329.728 346.112z" />
<glyph unicode="&#xe940;" glyph-name="bnav-game" d="M733.184 460.288c-20.48-4.096-38.912-8.192-55.296-12.288-28.672-8.192-47.104-22.528-86.016-61.44l-18.432-18.432c-38.912-38.912-53.248-57.344-61.44-86.016-4.096-16.384-8.192-34.816-12.288-55.296-26.624-122.88-57.344-262.144-165.888-270.336-2.048 0-6.144 0-8.192 0-104.448 0-169.984 137.216-231.424 270.336-12.288 24.576-22.528 47.104-32.768 67.584-67.584 137.216-51.2 243.712 55.296 350.208l198.656 198.656c40.96 40.96 106.496 94.208 200.704 94.208 47.104 0 96.256-12.288 149.504-40.96 20.48-10.24 45.056-20.48 69.632-32.768 135.168-61.44 276.48-126.976 268.288-237.568-8.192-108.544-147.456-139.264-270.336-165.888zM636.928 845.312c-47.104 22.528-86.016 34.816-122.88 34.816-59.392 0-108.544-28.672-157.696-77.824-14.336-14.336-34.816-32.768-57.344-57.344-32.768-32.768-61.44-61.44-83.968-83.968s-40.96-40.96-57.344-57.344c-77.824-77.824-104.448-157.696-43.008-280.576 59.392-120.832 129.024-305.152 208.896-305.152 2.048 0 2.048 0 4.096 0 75.776 6.144 98.304 178.176 124.928 278.528 12.288 45.056 34.816 71.68 75.776 114.688 2.048 2.048 6.144 6.144 8.192 8.192s6.144 6.144 8.192 8.192c40.96 40.96 69.632 65.536 114.688 75.776 102.4 24.576 274.432 47.104 278.528 124.928 10.24 86.016-180.224 155.648-301.056 217.088zM573.44 663.040h61.44v-61.44h-61.44v61.44zM573.44 755.2h61.44v-61.44h-61.44v61.44zM481.28 663.040h61.44v-61.44h-61.44v61.44zM481.28 755.2h61.44v-61.44h-61.44v61.44zM360.448 351.744c-12.288-12.288-30.72-12.288-40.96 0l-24.576 24.576-22.528-22.528c-12.288-12.288-30.72-12.288-40.96 0-12.288 12.288-12.288 30.72 0 40.96l22.528 22.528-22.528 22.528c-12.288 12.288-12.288 30.72 0 40.96 12.288 12.288 30.72 12.288 40.96 0l22.528-22.528 22.528 22.528c12.288 12.288 30.72 12.288 40.96 0 12.288-12.288 12.288-30.72 0-40.96l-22.528-22.528 24.576-24.576c12.288-10.24 12.288-28.672 0-40.96z" />
<glyph unicode="&#xe941;" glyph-name="bnav-clock" d="M512-43.52c-272.384 0-491.52 219.136-491.52 491.52s219.136 491.52 491.52 491.52 491.52-219.136 491.52-491.52-219.136-491.52-491.52-491.52zM512 878.080c-237.568 0-430.080-192.512-430.080-430.080s192.512-430.080 430.080-430.080c237.568 0 430.080 194.56 430.080 430.080 0 237.568-192.512 430.080-430.080 430.080zM645.12 271.872l-153.6 151.552c0 0 0 2.048-2.048 2.048-6.144 6.144-10.24 14.336-10.24 22.528v307.2c0 16.384 14.336 30.72 30.72 30.72s30.72-14.336 30.72-30.72v-294.912l145.408-145.408c12.288-12.288 12.288-30.72 0-43.008-10.24-12.288-30.72-12.288-40.96 0z" />
<glyph unicode="&#xe942;" glyph-name="bnav-mail" d="M1003.52 218.624c0-51.2-26.624-106.496-77.824-106.496h-798.72c-49.152-2.048-106.496 55.296-106.496 106.496v491.52c0 2.048 0 4.096 0 6.144 0 8.192 2.048 18.432 8.192 24.576 0 2.048 2.048 2.048 4.096 4.096 18.432 26.624 59.392 40.96 96.256 40.96h798.72c43.008 0 67.584-18.432 73.728-53.248 2.048-4.096 2.048-10.24 2.048-14.336 0-2.048 0-6.144 0-8.192v-491.52zM126.976 171.52h798.72c16.384 0 16.384 28.672 16.384 45.056v440.32l-409.6-327.68c-6.144-4.096-12.288-8.192-20.48-8.192s-14.336 2.048-20.48 8.192l-409.6 327.68v-440.32c0-16.384 28.672-45.056 45.056-45.056zM911.36 724.48h-784.384c-8.192 0-20.48 0-28.672-2.048l413.696-327.68 415.744 329.728c0 0 0 0 0 0h-16.384z" />
<glyph unicode="&#xe943;" glyph-name="bnav-user" d="M512 878.080c104.448 0 215.040-88.064 215.040-153.6v-153.6c0-59.392-24.576-172.032-90.112-223.232-16.384-12.288-24.576-34.816-22.528-55.296s16.384-38.912 34.816-49.152l268.288-126.976c2.048 0 26.624-4.096 26.624-36.864v-59.392l-862.208-2.048v61.44c0 24.576 18.432 32.768 26.624 34.816l268.288 129.024c18.432 8.192 32.768 26.624 34.816 49.152 2.048 20.48-6.144 43.008-22.528 55.296-63.488 51.2-94.208 163.84-94.208 223.232v153.6c2.048 63.488 112.64 153.6 217.088 153.6zM512 939.52c-135.168 0-276.48-112.64-276.48-215.040v-153.6c0-67.584 30.72-202.752 116.736-272.384l-270.336-126.976c0 0-61.44-26.624-61.44-61.44v-92.16c0-34.816 26.624-61.44 61.44-61.44h860.16c34.816 0 61.44 26.624 61.44 61.44v92.16c0 36.864-61.44 61.44-61.44 61.44l-268.288 126.976c86.016 67.584 114.688 198.656 114.688 272.384v153.6c0 102.4-141.312 215.040-276.48 215.040v0z" />
<glyph unicode="&#xe944;" glyph-name="arrow-left" d="M730.080-46.944c-9.184 0-18.368 3.648-25.152 10.88l-436.16 464.224c-12.48 13.312-12.48 33.984 0 47.296l428.96 456.576c13.024 13.888 34.88 14.56 48.8 1.536 13.888-13.088 14.56-34.944 1.504-48.832l-406.72-432.928 413.92-440.576c13.056-13.888 12.384-35.744-1.504-48.832-6.688-6.24-15.168-9.344-23.648-9.344z" />
<glyph unicode="&#xe945;" glyph-name="arrow-right" d="M293.92-46.944c-8.48 0-16.992 3.104-23.648 9.344-13.888 13.088-14.56 34.944-1.504 48.832l413.92 440.576-406.752 432.928c-13.056 13.888-12.384 35.744 1.504 48.832 13.92 13.024 35.744 12.352 48.8-1.536l428.96-456.576c12.48-13.312 12.48-33.984 0-47.296l-436.16-464.224c-6.784-7.264-15.968-10.88-25.152-10.88z" />
<glyph unicode="&#xe946;" glyph-name="icon-copied" d="M682.667 755.2h-477.867c-37.547 0-68.267-30.72-68.267-68.267v-614.4c0 0 0 0 0 0 0-37.547 30.72-68.267 68.267-68.267h477.867c37.547 0 68.267 30.72 68.267 68.267v614.4c0 37.547-30.72 68.267-68.267 68.267zM682.667 72.533h-477.867v614.4h477.867v-614.4zM785.067 140.8h34.133c37.547 0 68.267 30.72 68.267 68.267v0 614.4c0 37.547-30.72 68.267-68.267 68.267 0 0 0 0 0 0h-477.867c-37.547 0-68.267-30.72-68.267-68.267 0 0 0 0 0 0v-34.133h68.267v34.133h477.867v-614.4h-34.133v-68.267z" />
<glyph unicode="&#xe947;" glyph-name="alipay-logo" d="M505.6 342.4c-9.6 3.2-19.2 9.6-28.8 12.8s-22.4 9.6-32 12.8c-51.2 19.2-105.6 28.8-163.2 32-3.2 0-6.4 0-9.6 0v0c-6.4 0-9.6 0-16 0-35.2 0-67.2-9.6-96-35.2-22.4-19.2-32-41.6-32-67.2 0-6.4 0-9.6 0-16 3.2-9.6 6.4-19.2 12.8-32 16-28.8 41.6-48 73.6-54.4 19.2-6.4 35.2-9.6 54.4-9.6 48-3.2 92.8 6.4 137.6 28.8 51.2 25.6 89.6 64 124.8 108.8 3.2 3.2 0 3.2-3.2 6.4-3.2 6.4-12.8 9.6-22.4 12.8zM979.2 867.2c-25.6 38.4-60.8 60.8-105.6 67.2-6.4 0-12.8 3.2-19.2 3.2h-681.6c-32-3.2-60.8-12.8-86.4-28.8-41.6-28.8-64-67.2-70.4-115.2 0-3.2 0-6.4 0-9.6v-681.6c3.2-9.6 3.2-19.2 6.4-28.8 22.4-64 67.2-102.4 134.4-115.2 6.4 0 9.6-3.2 16-3.2h678.4c32 3.2 64 12.8 89.6 32 38.4 28.8 57.6 64 64 112 0 3.2 0 9.6 0 9.6l-3.2 3.2c0 0-3.2 0-3.2 3.2-83.2 35.2-163.2 70.4-246.4 105.6-41.6 19.2-83.2 38.4-128 57.6-3.2 3.2-6.4 0-9.6-3.2-28.8-32-57.6-64-92.8-89.6-41.6-32-89.6-54.4-144-64s-105.6-9.6-160 6.4c-38.4 9.6-70.4 28.8-96 57.6s-38.4 64-38.4 99.2c0 9.6 0 22.4 3.2 32 6.4 32 19.2 57.6 41.6 83.2s54.4 41.6 86.4 51.2c38.4 9.6 76.8 12.8 115.2 9.6 41.6-3.2 83.2-9.6 121.6-19.2 35.2-9.6 67.2-19.2 99.2-28.8 9.6-3.2 16-6.4 25.6-9.6 3.2 0 3.2 0 6.4 3.2 22.4 38.4 38.4 83.2 51.2 124.8 0 3.2 0 3.2 0 3.2s0 0-3.2 0-3.2 0-6.4 0c-121.6 0-246.4 0-368 0-6.4 0-6.4 0-6.4 6.4 0 9.6 0 16 0 25.6 0 0 0 0 0 0 0 3.2 0 6.4 6.4 6.4 9.6 0 19.2 0 28.8 0 48 0 99.2 0 147.2 0 3.2 0 6.4 0 6.4 6.4 0 3.2 0 3.2 0 6.4 0 16 0 32 0 51.2 0 3.2 0 6.4-6.4 6.4-73.6 0-147.2 0-220.8 0-6.4 0-6.4 0-6.4 6.4 0 9.6 0 19.2 0 28.8 0 0 0 0 0 0 0 3.2 0 6.4 6.4 6.4 41.6 0 86.4 0 128 0 32 0 64 0 92.8 0 3.2 0 6.4 0 6.4 6.4 0 3.2 0 3.2 0 6.4 0 25.6 0 54.4 0 80 0 0 0 0 0 0 0 9.6 3.2 16 12.8 19.2 3.2 0 9.6 0 12.8 0 28.8 0 57.6 0 86.4 0 6.4 0 6.4 0 6.4-6.4 0 0 0 0 0 0 0-16 0-28.8 0-44.8 0-19.2 0-38.4 0-54.4 0-6.4 0-6.4 6.4-6.4 76.8 0 153.6 0 233.6 0 3.2 0 6.4 0 9.6 0 0 0 0 0 0 0s0 0 0 0v-38.4c-3.2 0-3.2 0-6.4 0-76.8 0-156.8 0-233.6 0-3.2-6.4-6.4-6.4-6.4-6.4s0 0 0-3.2c0 0 0 0 0-3.2 0-16 0-32 0-48 0-3.2 0-3.2 0-6.4s0-6.4 6.4-6.4c64 0 124.8 0 188.8 0 3.2 0 3.2 0 3.2 0s0-3.2 0-6.4c-9.6-41.6-25.6-83.2-41.6-121.6v0c-9.6-22.4-22.4-44.8-35.2-67.2 0 0 0 0 0 0-3.2-3.2 0-6.4 3.2-6.4 60.8-19.2 118.4-38.4 179.2-57.6 44.8-12.8 92.8-28.8 137.6-41.6 0 0 3.2 0 3.2 0s0 0 0 0v512c0 28.8-6.4 57.6-25.6 83.2z" />
<glyph unicode="&#xe948;" glyph-name="debitcard-logo" d="M630.4 710.4c-80 0-144-64-144-147.2s64-147.2 144-147.2 144 64 144 147.2c0 80-64 147.2-144 147.2zM672 505.6c-6.4-6.4-16-12.8-25.6-16-3.2 0-6.4-3.2-6.4-6.4s0-9.6 0-12.8c0-3.2-3.2-6.4-6.4-6.4s-9.6 0-12.8 0c-3.2 0-6.4 3.2-6.4 6.4v9.6c0 6.4 0 6.4-6.4 9.6-9.6 0-16 3.2-25.6 6.4-6.4 3.2-6.4 3.2-6.4 9.6 0 3.2 3.2 9.6 3.2 12.8 3.2 6.4 3.2 6.4 9.6 3.2 9.6-3.2 19.2-6.4 28.8-9.6 6.4 0 12.8 0 19.2 3.2 9.6 6.4 12.8 19.2 3.2 28.8-3.2 3.2-6.4 3.2-9.6 6.4-9.6 3.2-19.2 6.4-28.8 12.8-12.8 9.6-22.4 19.2-22.4 38.4s12.8 32 28.8 38.4c9.6 0 9.6 0 9.6 9.6v6.4c0 6.4 0 6.4 6.4 6.4h6.4c12.8 0 12.8 0 12.8-12.8 0-9.6 0-9.6 9.6-9.6 6.4 0 12.8-3.2 19.2-6.4 3.2 0 3.2-3.2 3.2-6.4-3.2-6.4-3.2-9.6-6.4-16s-3.2-6.4-9.6-3.2c-9.6 3.2-19.2 6.4-32 6.4-3.2 0-6.4 0-9.6-3.2-9.6-3.2-9.6-12.8-3.2-19.2 3.2-3.2 9.6-6.4 12.8-6.4 12.8-6.4 22.4-9.6 28.8-12.8 25.6-12.8 32-44.8 16-67.2zM460.8 556.8c0-22.975-18.625-41.6-41.6-41.6s-41.6 18.625-41.6 41.6c0 22.975 18.625 41.6 41.6 41.6s41.6-18.625 41.6-41.6zM883.2 556.8c0-22.975-18.625-41.6-41.6-41.6s-41.6 18.625-41.6 41.6c0 22.975 18.625 41.6 41.6 41.6s41.6-18.625 41.6-41.6zM940.8 800h-630.4c-35.2 0-67.2-28.8-67.2-67.2v-342.4c0-35.2 28.8-67.2 67.2-67.2h633.6c35.2 0 67.2 28.8 67.2 67.2v345.6c-3.2 35.2-32 64-70.4 64 0 0 0 0 0 0zM950.4 464c-6.4 0-9.6 3.2-16 3.2-38.4 0-67.2-28.8-67.2-67.2 0-6.4 0-9.6 3.2-16h-492.8c6.4 35.2-16 70.4-54.4 80-9.6 0-16 3.2-25.6 0v201.6c35.2-6.4 70.4 19.2 76.8 54.4 0 9.6 0 16 0 25.6h489.6c0-3.2 0-6.4 0-9.6 0-38.4 28.8-67.2 67.2-67.2 0 0 0 0 0 0 6.4 0 12.8 0 16 3.2l3.2-208zM819.2 268.8h-601.6c-16 0-28.8 12.8-28.8 28.8 0 0 0 0 0 0v387.2c-32-3.2-57.6-32-57.6-64v-342.4c0-35.2 28.8-67.2 67.2-67.2 0 0 0 0 0 0h633.6c32 0 60.8 25.6 64 57.6h-76.8zM704 150.4h-601.6c-16 0-28.8 12.8-28.8 28.8 0 0 0 0 0 0v390.4c-32-3.2-57.6-32-57.6-64v-345.6c0-35.2 28.8-67.2 67.2-67.2 0 0 0 0 0 0h633.6c32 0 60.8 25.6 64 57.6h-76.8z" />
<glyph unicode="&#xe949;" glyph-name="debitcard0-logo" d="M969.6 758.4l-608 128c-25.6 6.4-51.2-9.6-57.6-35.2l-12.8-73.6 700.8-147.2 12.8 73.6c6.4 25.6-9.6 51.2-35.2 54.4v0zM713.6 614.4c-6.4 25.6-35.2 41.6-60.8 32l-115.2-32-268.8 57.6-28.8-140.8-188.8-51.2c-25.6-6.4-41.6-32-32-60.8l105.6-377.6c6.4-25.6 35.2-41.6 60.8-32l604.8 166.4c25.6 6.4 41.6 32 32 60.8l-19.2 64 67.2-12.8c25.6-6.4 51.2 9.6 57.6 35.2l41.6 201.6-243.2 51.2c0 0-12.8 38.4-12.8 38.4zM784 422.4l16 70.4c3.2 9.6 12.8 16 22.4 16l70.4-16c9.6-3.2 16-12.8 16-22.4l-16-70.4c-3.2-9.6-12.8-16-22.4-16l-70.4 12.8c-9.6 3.2-19.2 12.8-16 25.6zM60.8 441.6l166.4 44.8 393.6 108.8 41.6 12.8c3.2 0 9.6 0 9.6-6.4l6.4-19.2 16-57.6-620.8-172.8-19.2 73.6c0 9.6 3.2 16 6.4 16zM780.8 224c0-3.2 0-3.2 0-6.4s-3.2-3.2-6.4-3.2l-604.8-166.4c0 0 0 0-3.2 0s-6.4 3.2-9.6 6.4l-60.8 220.8 620.8 172.8 38.4-137.6 25.6-86.4zM268.8 208c-3.2 9.6-12.8 16-25.6 12.8l-70.4-19.2c-9.6-3.2-16-12.8-12.8-25.6l19.2-70.4c3.2-9.6 12.8-16 25.6-12.8l70.4 19.2c9.6 3.2 16 12.8 12.8 25.6 0 0-19.2 70.4-19.2 70.4z" />
<glyph unicode="&#xe94a;" glyph-name="onlinebank" d="M768 822.4c-124.8 0-224-99.2-224-224s99.2-224 224-224c124.8 0 224 99.2 224 224s-99.2 224-224 224zM832 508.8c-9.6-12.8-22.4-19.2-38.4-22.4-6.4-3.2-9.6-6.4-9.6-12.8s0-12.8 0-19.2c0-6.4-3.2-9.6-9.6-9.6s-12.8 0-22.4 0c-6.4 0-9.6 3.2-9.6 9.6v16c0 9.6 0 9.6-9.6 12.8-12.8 3.2-25.6 6.4-38.4 9.6-9.6 3.2-9.6 6.4-6.4 16 3.2 6.4 3.2 16 6.4 22.4 3.2 9.6 6.4 9.6 12.8 6.4 12.8-6.4 28.8-9.6 41.6-12.8 9.6 0 19.2 0 28.8 3.2 16 6.4 19.2 25.6 6.4 38.4-3.2 3.2-9.6 6.4-16 9.6-16 6.4-28.8 12.8-44.8 19.2-22.4 12.8-35.2 32-35.2 57.6 3.2 32 19.2 48 48 60.8 12.8 3.2 12.8 3.2 12.8 16v12.8c0 9.6 3.2 9.6 9.6 9.6h9.6c19.2 0 19.2 0 19.2-19.2 0-12.8 0-12.8 12.8-16 9.6-3.2 19.2-3.2 28.8-9.6 6.4-3.2 6.4-6.4 6.4-12.8-3.2-9.6-3.2-16-6.4-25.6-3.2-6.4-6.4-9.6-12.8-6.4-16 6.4-32 9.6-48 9.6-3.2 0-9.6 0-12.8-3.2-16-6.4-16-22.4-3.2-32 6.4-6.4 12.8-9.6 19.2-12.8 12.8-6.4 25.6-9.6 38.4-16 38.4-16 48-64 22.4-99.2zM544 121.6h-118.4c-16 0-28.8 12.8-28.8 28.8v6.4h172.8v-6.4c3.2-16-9.6-28.8-25.6-28.8zM896 211.2c-6.4 6.4-9.6 19.2-9.6 28.8v112c-25.6-12.8-51.2-25.6-80-28.8v-86.4h-640v403.2h323.2c6.4 28.8 16 54.4 32 80h-352c-44.8 0-80-35.2-80-80v-400c0-9.6-3.2-19.2-9.6-28.8l-41.6-51.2c-3.2-3.2-6.4-9.6-6.4-12.8v-22.4c0-28.8 25.6-54.4 54.4-54.4h800c28.8 0 54.4 22.4 54.4 54.4v22.4c0 3.2 0 9.6-3.2 12.8s-41.6 51.2-41.6 51.2z" />
<glyph unicode="&#xe94b;" glyph-name="bn-game" d="M278.4 195.2c28.8 0 51.2 22.4 51.2 51.2v44.8h44.8c28.8 0 51.2 22.4 51.2 51.2s-25.6 44.8-54.4 44.8h-44.8v44.8c0 28.8-22.4 51.2-51.2 51.2s-51.2-22.4-51.2-51.2v-44.8h-44.8c-28.8 0-51.2-22.4-51.2-51.2s22.4-51.2 51.2-51.2h44.8v-44.8c3.2-22.4 25.6-44.8 54.4-44.8zM307.2 352h64c6.4 0 12.8-6.4 12.8-12.8s-6.4-12.8-12.8-12.8h-64c-9.6 0-19.2-9.6-19.2-19.2v-64c0-6.4-6.4-12.8-12.8-12.8s-12.8 6.4-12.8 12.8v64c0 9.6-9.6 19.2-19.2 19.2h-64c-6.4 0-12.8 6.4-12.8 12.8s6.4 12.8 12.8 12.8h64c9.6 0 19.2 9.6 19.2 19.2v64c0 6.4 6.4 12.8 12.8 12.8s12.8-6.4 12.8-12.8v-64c0-12.8 9.6-19.2 19.2-19.2zM745.6 579.2h-102.4v134.4c0 48-38.4 83.2-83.2 83.2-48 0-83.2-38.4-83.2-83.2 0-22.4-19.2-41.6-41.6-41.6s-41.6 19.2-41.6 41.6v188.8c0 12.8-9.6 22.4-22.4 22.4s-22.4-9.6-22.4-22.4v-188.8c0-48 38.4-83.2 83.2-83.2s83.2 38.4 83.2 83.2c0 22.4 19.2 41.6 41.6 41.6s41.6-19.2 41.6-41.6v-156.8c0-12.8 9.6-22.4 22.4-22.4h124.8c105.6 0 198.4-89.6 198.4-198.4v-252.8c0-44.8-41.6-70.4-70.4-70.4-41.6 0-70.4 28.8-102.4 64-51.2 54.4-112 124.8-259.2 124.8-144 0-208-67.2-259.2-121.6-32-35.2-60.8-64-102.4-64-28.8 0-70.4 25.6-70.4 70.4v249.6c0 105.6 89.6 198.4 198.4 198.4h281.6c12.8 0 22.4 9.6 22.4 22.4s-12.8 22.4-22.4 22.4h-281.6c-131.2 0-240-112-240-240v-249.6c0-67.2 60.8-115.2 115.2-115.2 64 0 99.2 38.4 134.4 80 48 51.2 99.2 108.8 224 108.8s179.2-57.6 227.2-108.8c38.4-41.6 73.6-80 134.4-80 54.4 0 115.2 48 115.2 115.2v252.8c0 128-112 236.8-243.2 236.8zM864 278.4c32 0 57.6 25.6 57.6 57.6s-25.6 57.6-57.6 57.6-57.6-25.6-57.6-57.6 25.6-57.6 57.6-57.6zM864 361.6c12.8 0 22.4-9.6 22.4-22.4s-9.6-22.4-22.4-22.4-22.4 9.6-22.4 22.4 9.6 22.4 22.4 22.4zM745.6 480c-32 0-57.6-25.6-57.6-57.6s25.6-57.6 57.6-57.6 57.6 25.6 57.6 57.6c3.2 32-22.4 57.6-57.6 57.6zM745.6 396.8c-12.8 0-22.4 9.6-22.4 22.4s9.6 22.4 22.4 22.4 22.4-9.6 22.4-22.4-6.4-22.4-22.4-22.4zM630.4 396.8c-32 0-57.6-25.6-57.6-57.6s25.6-57.6 57.6-57.6 57.6 25.6 57.6 57.6-25.6 57.6-57.6 57.6zM630.4 313.6c-12.8 0-22.4 9.6-22.4 22.4s9.6 22.4 22.4 22.4 22.4-9.6 22.4-22.4-9.6-22.4-22.4-22.4zM745.6 313.6c-32 0-57.6-25.6-57.6-57.6s25.6-57.6 57.6-57.6 57.6 25.6 57.6 57.6-22.4 57.6-57.6 57.6zM745.6 230.4c-12.8 0-22.4 9.6-22.4 22.4s9.6 22.4 22.4 22.4 22.4-9.6 22.4-22.4-6.4-22.4-22.4-22.4z" />
<glyph unicode="&#xe94c;" glyph-name="bn-deposit" d="M923.671 573.929h-16c-22.4 60.8-64 115.2-115.2 160v0c-6.4 28.8-3.2 57.6 16 86.4 9.6 16 9.6 35.2 0 51.2s-25.6 25.6-44.8 25.6c-3.2 0-3.2 0-6.4 0-70.4-6.4-115.2-38.4-140.8-70.4-41.6 12.8-89.6 19.2-134.4 19.2-118.4 0-233.6-41.6-316.8-115.2-86.4-73.6-134.4-176-134.4-281.6 0-28.8 3.2-54.4 9.6-83.2 0 0 0 0 0 0s0 0 0 0c6.4-25.6 16-54.4 28.8-80 22.4-44.8 48-83.2 76.8-115.2 41.6-41.6 48-96 48-115.2v-12.8c0 0 0-3.2 0-3.2 3.2-25.6 22.4-44.8 48-44.8h150.4c25.6 0 48 22.4 48 48v9.6c22.4-3.2 44.8-3.2 70.4 0v-9.6c0-25.6 22.4-48 48-48h147.2c25.6 0 48 22.4 48 48v35.2c0 9.6 3.2 48 41.6 83.2 3.2 0 3.2 3.2 6.4 3.2 0 0 0 0 0 0s0 0 0 0c51.2 44.8 86.4 99.2 108.8 156.8h12.8c38.4 0 67.2 32 67.2 67.2v108.8c3.2 48-28.8 76.8-67.2 76.8zM946.071 397.929c0-12.8-9.6-22.4-22.4-22.4h-32c-9.6 0-19.2-6.4-22.4-16-19.2-57.6-51.2-112-102.4-153.6 0 0 0 0 0 0v0c-3.2 0-3.2-3.2-6.4-3.2 0 0 0 0 0 0-48-51.2-54.4-105.6-54.4-121.6v0-35.2c0 0 0 0 0 0h-150.4c0 0 0 0 0 0v35.2c0 6.4-3.2 12.8-6.4 19.2-3.2 3.2-9.6 6.4-16 6.4 0 0 0 0-3.2 0-16-3.2-32-3.2-48-3.2-22.4 0-41.6 0-64 3.2-6.4 0-12.8 0-19.2-6.4-3.2-6.4-6.4-12.8-6.4-19.2v-35.2c0 0 0 0 0 0h-147.2c0 0 0 0 0 0v0 9.6c0 25.6-9.6 92.8-64 147.2-25.6 25.6-48 60.8-67.2 102.4 0 0 0 0 0 0-12.8 22.4-19.2 44.8-25.6 70.4 0 0 0 0 0 0v0c-6.4 22.4-9.6 48-9.6 70.4 0 192 182.4 348.8 403.2 348.8 48 0 92.8-6.4 137.6-22.4 9.6-3.2 22.4 0 25.6 9.6 19.2 25.6 54.4 57.6 121.6 67.2 0 0 3.2 0 3.2 0s0-3.2 0-3.2c-25.6-41.6-35.2-86.4-22.4-124.8 0 0 0 0 0 0 0-6.4 3.2-12.8 9.6-19.2 54.4-44.8 92.8-99.2 112-160 3.2-9.6 12.8-16 22.4-16v0h32c12.8 0 22.4-9.6 22.4-22.4v-105.6zM507.671 471.529h-54.4c-19.2 0-35.2 16-35.2 35.2s16 35.2 35.2 35.2h92.8c12.8 0 22.4 9.6 22.4 22.4s-9.6 22.4-22.4 22.4h-41.6v32c0 12.8-9.6 22.4-22.4 22.4s-22.4-9.6-22.4-22.4v-32h-6.4c-44.8 0-83.2-38.4-83.2-83.2s38.4-83.2 83.2-83.2h54.4c19.2 0 35.2-16 35.2-35.2s-16-35.2-35.2-35.2h-96c-12.8 0-22.4-9.6-22.4-22.4s9.6-22.4 22.4-22.4h44.8v-32c0-12.8 9.6-22.4 22.4-22.4s22.4 9.6 22.4 22.4v32h3.2c44.8 0 80 38.4 80 83.2 6.4 48-32 83.2-76.8 83.2z" />
<glyph unicode="&#xe94d;" glyph-name="record-history" d="M867.2-38.4h-713.6c-35.2 0-64 28.8-64 64v844.8c0 35.2 28.8 64 64 64h713.6c35.2 0 64-28.8 64-64v-844.8c0-35.2-28.8-64-64-64zM156.8 892.8c-12.8 0-22.4-9.6-22.4-22.4v-844.8c0-12.8 9.6-22.4 22.4-22.4h710.4c12.8 0 22.4 9.6 22.4 22.4v844.8c0 12.8-9.6 22.4-22.4 22.4h-710.4zM780.8 422.4h-544c-16 0-28.8 12.8-28.8 28.8s12.8 28.8 28.8 28.8h544c16 0 28.8-12.8 28.8-28.8-3.2-16-16-28.8-28.8-28.8zM780.8 118.4h-544c-16 0-28.8 12.8-28.8 28.8s12.8 28.8 28.8 28.8h544c16 0 28.8-12.8 28.8-28.8-3.2-16-16-28.8-28.8-28.8zM780.8 576h-544c-16 0-28.8 12.8-28.8 28.8s12.8 28.8 28.8 28.8h544c16 0 28.8-12.8 28.8-28.8-3.2-16-16-28.8-28.8-28.8zM278.678 769.422c0-22.975-18.625-41.6-41.6-41.6s-41.6 18.625-41.6 41.6c0 22.975 18.625 41.6 41.6 41.6s41.6-18.625 41.6-41.6zM425.878 769.422c0-22.975-18.625-41.6-41.6-41.6s-41.6 18.625-41.6 41.6c0 22.975 18.625 41.6 41.6 41.6s41.6-18.625 41.6-41.6zM569.878 769.422c0-22.975-18.625-41.6-41.6-41.6s-41.6 18.625-41.6 41.6c0 22.975 18.625 41.6 41.6 41.6s41.6-18.625 41.6-41.6zM780.8 272h-544c-16 0-28.8 12.8-28.8 28.8s12.8 28.8 28.8 28.8h544c16 0 28.8-12.8 28.8-28.8s-16-28.8-28.8-28.8z" />
<glyph unicode="&#xe94e;" glyph-name="bn-withdraw" d="M94.306 711.529c-12.8 0-25.6 9.6-25.6 25.6v182.4c0 12.8 9.6 25.6 25.6 25.6h838.4c12.8 0 25.6-9.6 25.6-25.6v-172.8c0-12.8-9.6-25.6-25.6-25.6-12.8 0-25.6 9.6-25.6 25.6v147.2h-790.4v-160c0-12.8-9.6-22.4-22.4-22.4zM827.106-46.871h-630.4c-25.6 0-44.8 19.2-44.8 44.8v809.6c0 25.6 19.2 44.8 44.8 44.8h630.4c25.6 0 44.8-19.2 44.8-44.8v-809.6c-3.2-25.6-22.4-44.8-44.8-44.8zM199.906 1.129h620.8v803.2h-620.8v-803.2zM532.685 482.931h-41.6c-16 0-28.8 12.8-28.8 28.8s12.8 28.8 28.8 28.8h76.8c9.6 0 19.2 9.6 19.2 19.2s-9.6 19.2-19.2 19.2h-35.2v25.6c0 9.6-9.6 19.2-19.2 19.2s-19.2-9.6-19.2-19.2v-25.6h-3.2c-35.2 0-67.2-32-67.2-67.2s28.8-67.2 67.2-67.2h41.6c16 0 28.8-12.8 28.8-28.8s-12.8-28.8-28.8-28.8h-76.8c-9.6 0-19.2-9.6-19.2-19.2s9.6-19.2 19.2-19.2h35.2v-25.6c0-9.6 9.6-19.2 19.2-19.2s19.2 9.6 19.2 19.2v25.6h3.2c35.2 0 67.2 32 67.2 67.2 0 38.4-28.8 67.2-67.2 67.2zM510.285 220.531c-131.2 0-240 108.8-240 243.2s108.8 243.2 240 243.2c131.2 0 240-108.8 240-243.2s-108.8-243.2-240-243.2zM510.285 658.931c-105.6 0-192-86.4-192-195.2s86.4-195.2 192-195.2 192 86.4 192 195.2c0 108.8-86.4 195.2-192 195.2z" />
<glyph unicode="&#xe94f;" glyph-name="promotion-gift" d="M288 873.6c-22.4-22.4-35.2-51.2-35.2-80 0-35.2 28.8-57.6 51.2-70.4h-275.2v-217.6h57.6v-515.2h851.2v518.4h57.6v217.6h-272c38.4 22.4 48 44.8 51.2 70.4 0 28.8-12.8 57.6-35.2 80-32 25.6-60.8 32-96 28.8-44.8-9.6-73.6-35.2-92.8-60.8-12.8-16-25.6-38.4-35.2-60.8-6.4 22.4-19.2 41.6-35.2 60.8-28.8 28.8-64 51.2-96 57.6-38.4 3.2-60.8 3.2-96-28.8zM380.8 880c32-12.8 60.8-32 80-54.4 19.2-25.6 35.2-60.8 38.4-102.4h-118.4c-38.4 3.2-105.6 35.2-105.6 70.4 0 25.6 12.8 48 28.8 60.8 25.6 22.4 41.6 25.6 76.8 25.6zM720 857.6c19.2-16 28.8-41.6 28.8-60.8-9.6-48-64-70.4-105.6-70.4h-118.4c3.2 38.4 19.2 73.6 38.4 99.2 25.6 28.8 44.8 41.6 80 54.4 35.2 0 57.6-6.4 76.8-22.4zM51.2 700.8h921.6v-169.6h-448v83.2h-25.6v-83.2h-448v169.6zM112 508.8h803.2v-492.8h-390.4v432h-25.6v-432h-390.4c3.2 0 3.2 492.8 3.2 492.8z" />
<glyph unicode="&#xe950;" glyph-name="gameicon-sport" d="M518.4-51.2c-272 0-492.8 220.8-492.8 492.8s220.8 492.8 492.8 492.8c272 0 492.8-220.8 492.8-492.8s-220.8-492.8-492.8-492.8zM784 76.8c105.6 80 179.2 201.6 185.6 345.6l-92.8-64-118.4-217.6 25.6-64zM739.2 156.8l115.2 214.4-96 137.6-211.2-19.2-76.8-172.8 102.4-169.6 166.4 9.6zM518.4-12.8c3.2 0 9.6 0 12.8 0l-35.2 35.2-224 38.4c70.4-44.8 153.6-73.6 246.4-73.6zM256 89.6l230.4-38.4 64 86.4-102.4 166.4-182.4 44.8-80-150.4 70.4-108.8zM89.6 288l76.8-67.2 76.8 140.8-12.8 182.4-134.4 73.6c-22.4-54.4-35.2-112-35.2-176 3.2-54.4 12.8-105.6 28.8-153.6zM384 876.8c-121.6-38.4-220.8-124.8-275.2-236.8l137.6-73.6 166.4 96 3.2-3.2 57.6 163.2-89.6 54.4zM499.2 819.2l-64-182.4 112-124.8 208 19.2 60.8 124.8-163.2 172.8-153.6-9.6zM672 870.4v-19.2l176-185.6 83.2-41.6c-48 112-140.8 201.6-259.2 246.4z" />
<glyph unicode="&#xe951;" glyph-name="gameicon-live" d="M972.8 115.2l38.4-112h-153.6v25.6h-102.4c-70.4-41.6-153.6-64-240-64s-169.6 22.4-240 64h-102.4v-25.6h-153.6l38.4 112-38.4 115.2h64c-32 64-51.2 137.6-51.2 217.6 0 265.6 217.6 483.2 483.2 483.2s483.2-217.6 483.2-483.2c0-76.8-19.2-150.4-51.2-217.6h64l-38.4-115.2zM723.2 96c9.6-12.8 25.6-19.2 44.8-19.2s35.2 6.4 44.8 19.2c9.6 12.8 16 25.6 16 44.8s-6.4 35.2-16 44.8c-12.8 12.8-25.6 19.2-44.8 19.2s-35.2-6.4-44.8-19.2c-9.6-12.8-16-25.6-16-44.8 0-16 6.4-32 16-44.8zM729.6 256c0 16 3.2 32 9.6 51.2 3.2 19.2 3.2 38.4 6.4 60.8 3.2 16-6.4 28.8-19.2 41.6-19.2 19.2-35.2 38.4-54.4 54.4-16 19.2-35.2 35.2-51.2 51.2-9.6 6.4-12.8 12.8-12.8 25.6 0 9.6 3.2 22.4 0 32-12.8 32-25.6 67.2-28.8 102.4-3.2 25.6-35.2 51.2-57.6 54.4-28.8 3.2-57.6-16-67.2-41.6-12.8-38.4-22.4-80-19.2-121.6 0-25.6 0-28.8-22.4-28.8s-38.4-12.8-48-32c-3.2-6.4-6.4-16-9.6-22.4-9.6-41.6-19.2-83.2-28.8-124.8-3.2-12.8 3.2-22.4 9.6-35.2 22.4-25.6 51.2-48 80-67.2h265.6c-3.2 3.2-6.4 6.4-6.4 9.6-16 16-32 28.8-48 48-9.6 12.8-16 28.8-25.6 44.8 12.8 0 22.4 0 35.2 0-19.2 12.8-16 25.6-6.4 41.6 6.4 12.8 6.4 28.8 12.8 48 3.2-32 32-44.8 51.2-64 6.4-6.4 12.8-19.2 12.8-25.6 0-32 0-67.2-3.2-99.2 0 0 0 0 0 0h25.6zM457.6 185.6c3.2 3.2 9.6 3.2 19.2 3.2s16 0 22.4-6.4c3.2-3.2 9.6-9.6 9.6-16h19.2c0 12.8-6.4 22.4-16 28.8s-19.2 9.6-35.2 9.6c-12.8 0-25.6-3.2-35.2-9.6s-12.8-16-12.8-25.6c0-9.6 6.4-19.2 16-25.6 3.2-3.2 12.8-6.4 28.8-9.6 12.8-3.2 22.4-6.4 25.6-9.6 6.4-3.2 12.8-9.6 12.8-16s-3.2-9.6-9.6-12.8c-6.4-3.2-12.8-3.2-22.4-3.2s-19.2 3.2-22.4 6.4c-6.4 3.2-9.6 9.6-9.6 19.2h-19.2c0-16 6.4-25.6 16-35.2 9.6-6.4 22.4-9.6 38.4-9.6s28.8 3.2 38.4 9.6c9.6 6.4 12.8 16 12.8 25.6 0 12.8-6.4 19.2-16 25.6-6.4 3.2-16 6.4-32 12.8-12.8 3.2-19.2 6.4-22.4 6.4-6.4 3.2-9.6 6.4-9.6 12.8-3.2 12.8 0 16 3.2 19.2zM544 204.8v-121.6h22.4v121.6h-22.4zM694.4 80v121.6h-22.4v-89.6l-64 89.6h-22.4v-121.6h22.4v89.6l64-89.6h22.4zM515.2 3.2c51.2 0 102.4 9.6 147.2 25.6h-297.6c48-16 99.2-25.6 150.4-25.6zM326.4 80l12.8 32h54.4l12.8-32h22.4l-48 121.6h-22.4l-48-121.6h16zM198.4 99.2c9.6-12.8 25.6-19.2 48-19.2 12.8 0 25.6 3.2 35.2 12.8s16 19.2 19.2 35.2h-19.2c-3.2-9.6-6.4-16-12.8-22.4-6.4-3.2-12.8-6.4-22.4-6.4-12.8 0-25.6 3.2-32 12.8-6.4 6.4-9.6 19.2-9.6 32s3.2 25.6 9.6 32c6.4 9.6 16 12.8 28.8 12.8 9.6 0 16-3.2 22.4-6.4s9.6-9.6 12.8-19.2h19.2c-3.2 12.8-6.4 22.4-16 28.8s-22.4 12.8-38.4 12.8c-19.2 0-35.2-6.4-48-19.2-9.6-12.8-12.8-25.6-12.8-44.8 0-16 6.4-32 16-41.6zM960 448c0 246.4-198.4 444.8-444.8 444.8s-444.8-198.4-444.8-444.8c0-80 19.2-153.6 57.6-217.6h19.2v25.6h83.2c-35.2 54.4-57.6 121.6-57.6 192 0 188.8 153.6 342.4 342.4 342.4s342.4-153.6 342.4-342.4c0-70.4-22.4-137.6-57.6-192h83.2v-25.6h19.2c38.4 67.2 57.6 140.8 57.6 217.6zM883.2 416v64c0 9.6 9.6 19.2 19.2 19.2s19.2-9.6 19.2-19.2v-64c0-9.6-9.6-19.2-19.2-19.2s-19.2 9.6-19.2 19.2zM796.8 688l-44.8 44.8c-6.4 6.4-6.4 19.2 0 25.6s19.2 6.4 25.6 0l44.8-44.8c6.4-6.4 6.4-19.2 0-25.6-3.2-9.6-16-9.6-25.6 0zM547.2 816h-64c-9.6 0-19.2 9.6-19.2 19.2s9.6 19.2 19.2 19.2h64c9.6 0 19.2-9.6 19.2-19.2s-9.6-19.2-19.2-19.2zM230.4 688c-6.4-6.4-19.2-6.4-25.6 0s-6.4 19.2 0 25.6l44.8 44.8c6.4 6.4 19.2 6.4 25.6 0s6.4-19.2 0-25.6l-44.8-44.8zM128 396.8c-9.6 0-19.2 9.6-19.2 19.2v64c0 9.6 9.6 19.2 19.2 19.2s19.2-9.6 19.2-19.2v-64c-3.2-9.6-9.6-19.2-19.2-19.2zM364.8 182.4l19.2-54.4h-41.6l22.4 54.4zM371.2 342.4c-3.2 6.4-3.2 19.2 0 28.8 6.4 16 12.8 32 22.4 48 6.4-28.8 12.8-54.4 22.4-80s19.2-48 32-76.8c-32 28.8-57.6 48-76.8 80zM771.2 188.8c12.8 0 22.4-3.2 32-12.8 6.4-9.6 9.6-19.2 9.6-35.2s-3.2-25.6-9.6-35.2c-6.4-9.6-16-12.8-32-12.8-12.8 0-22.4 3.2-32 12.8-6.4 9.6-9.6 19.2-9.6 32s3.2 25.6 9.6 32c6.4 16 19.2 19.2 32 19.2z" />
<glyph unicode="&#xe952;" glyph-name="gameicon-egame" d="M915.2 102.4h-812.8c-12.8 0-22.4 9.6-22.4 22.4v246.4c0 12.8 9.6 22.4 22.4 22.4h812.8c12.8 0 22.4-9.6 22.4-22.4v-246.4c3.2-12.8-9.6-22.4-22.4-22.4zM899.2 342.4c0 6.4-6.4 12.8-12.8 12.8h-755.2c-6.4 0-12.8-6.4-12.8-12.8v-192c0-6.4 6.4-12.8 12.8-12.8h755.2c6.4 0 12.8 6.4 12.8 12.8v192zM643.2 342.4h214.4v-185.6h-214.4v185.6zM697.6 288h67.2c0 0-54.4-41.6-54.4-105.6h41.6c0 0-3.2 73.6 54.4 121.6v12.8h-108.8v-28.8zM403.2 342.4h214.4v-185.6h-214.4v185.6zM454.4 288h67.2c0 0-54.4-41.6-54.4-105.6h41.6c0 0-3.2 73.6 54.4 121.6v12.8h-108.8v-28.8zM160 342.4h214.4v-185.6h-214.4v185.6zM214.4 288h67.2c0 0-54.4-41.6-54.4-105.6h41.6c0 0-3.2 73.6 54.4 121.6v12.8h-108.8v-28.8zM697.6 662.4l22.4 32c96-60.8 166.4-160 185.6-275.2h-41.6c-16 105.6-80 192-166.4 243.2zM672 512l28.8 28.8 9.6-38.4 38.4-19.2-35.2-22.4-6.4-41.6-32 25.6-41.6-6.4 16 38.4-19.2 35.2h41.6zM476.8 553.6l32 54.4 32-54.4 64-12.8-44.8-44.8 6.4-60.8-57.6 25.6-57.6-25.6 6.4 60.8-44.8 44.8 64 12.8zM745.6 755.2c-3.2 0-9.6 0-12.8 3.2l-86.4-137.6h-268.8l-86.4 137.6c-3.2-3.2-9.6-3.2-12.8-3.2-19.2 0-32 16-32 32 0 19.2 16 32 32 32 19.2 0 32-12.8 32-32l108.8-35.2 67.2 118.4c-6.4 6.4-12.8 16-12.8 28.8 0 22.4 19.2 41.6 41.6 41.6s41.6-19.2 41.6-41.6c0-12.8-3.2-22.4-12.8-28.8l67.2-118.4 108.8 35.2c0 16 16 32 32 32 19.2 0 32-16 32-32-6.4-16-22.4-32-38.4-32zM604.8 716.8h-25.6l-67.2 134.4-67.2-134.4h-25.6l-80 25.6 54.4-80h243.2l54.4 80-86.4-25.6zM339.2 444.8l-32-25.6-6.4 41.6-35.2 22.4 38.4 19.2 9.6 38.4 28.8-28.8 41.6 3.2-19.2-35.2 16-38.4-41.6 3.2zM323.2 662.4c-86.4-51.2-150.4-140.8-169.6-243.2h-41.6c19.2 115.2 89.6 214.4 185.6 275.2l25.6-32zM508.8-6.4c86.4 0 166.4 28.8 227.2 80h60.8c-73.6-73.6-176-121.6-288-121.6s-214.4 44.8-288 121.6h60.8c60.8-48 140.8-80 227.2-80z" />
<glyph unicode="&#xe953;" glyph-name="gameicon-game" d="M924.8 217.6l-19.2 44.8c28.8 60.8 48 128 48 198.4 0 246.4-198.4 444.8-444.8 444.8s-444.8-198.4-444.8-444.8c0-83.2 22.4-160 60.8-227.2l-19.2-44.8c-51.2 76.8-83.2 169.6-83.2 268.8 0 268.8 217.6 483.2 483.2 483.2 268.8 0 483.2-217.6 483.2-483.2 0-86.4-22.4-169.6-64-240zM668.8 742.4c6.4 0 12.8-6.4 12.8-12.8s-6.4-12.8-12.8-12.8-12.8 6.4-12.8 12.8 6.4 12.8 12.8 12.8zM480 841.6c41.6 0 80-25.6 96-64l-96-38.4 89.6-44.8c-16-32-51.2-57.6-89.6-57.6-57.6 0-102.4 44.8-102.4 102.4s44.8 102.4 102.4 102.4zM467.2 780.8c6.4 0 12.8 6.4 12.8 12.8s-6.4 12.8-12.8 12.8c-6.4 0-12.8-6.4-12.8-12.8 0-9.6 6.4-12.8 12.8-12.8zM284.8 499.2l-19.2-25.6-19.2 25.6-19.2-25.6-19.2 25.6-19.2-25.6-19.2 25.6-19.2-25.6v134.4c0 38.4 38.4 67.2 89.6 67.2 48 0 89.6-32 89.6-67.2v-134.4l-19.2 25.6-19.2-25.6-6.4 25.6zM214.4 617.6c-9.6 0-19.2-12.8-19.2-25.6s6.4-25.6 19.2-25.6c6.4 0 9.6 3.2 12.8 9.6-6.4 0-12.8 6.4-12.8 12.8s6.4 12.8 12.8 12.8c0 0 3.2 0 3.2 0 0 9.6-6.4 16-16 16zM284.8 617.6c-9.6 0-19.2-12.8-19.2-25.6s6.4-25.6 19.2-25.6c6.4 0 9.6 3.2 12.8 9.6-6.4 0-12.8 6.4-12.8 12.8s6.4 12.8 12.8 12.8c0 0 3.2 0 3.2 0 0 9.6-6.4 16-16 16zM377.6 345.6c0-32-22.4-60.8-51.2-70.4v-108.8c22.4-6.4 38.4-16 38.4-28.8 0-16-28.8-32-64-32s-64 12.8-64 32c0 12.8 16 25.6 38.4 28.8v108.8c-28.8 9.6-51.2 38.4-51.2 70.4 0 41.6 35.2 76.8 76.8 76.8s76.8-35.2 76.8-76.8zM608 729.6c0 6.4 6.4 12.8 12.8 12.8s12.8-6.4 12.8-12.8-6.4-12.8-12.8-12.8-12.8 3.2-12.8 12.8zM668.8 499.2v-204.8l-25.6 38.4-25.6-38.4-25.6 38.4-25.6-38.4-25.6 38.4-25.6-38.4-25.6 38.4-25.6-38.4-25.6 38.4-25.6-38.4v204.8c0 57.6 57.6 102.4 128 102.4 73.6 0 128-44.8 128-102.4zM492.8 512c-12.8 0-22.4-9.6-25.6-25.6 3.2 0 3.2 0 6.4 0 9.6 0 19.2-9.6 19.2-19.2s-9.6-19.2-19.2-19.2c3.2-6.4 12.8-12.8 19.2-12.8 12.8 0 25.6 16 25.6 38.4s-12.8 38.4-25.6 38.4zM595.2 512c-12.8 0-22.4-9.6-25.6-25.6 3.2 0 3.2 0 6.4 0 9.6 0 19.2-9.6 19.2-19.2s-9.6-19.2-19.2-19.2c3.2-6.4 12.8-12.8 19.2-12.8 12.8 0 25.6 16 25.6 38.4s-12.8 38.4-25.6 38.4zM707.2 729.6c0 6.4 6.4 12.8 12.8 12.8s12.8-6.4 12.8-12.8-6.4-12.8-12.8-12.8c-6.4 0-12.8 3.2-12.8 12.8zM886.4 534.4v-134.4l-19.2 25.6-19.2-25.6-19.2 25.6-19.2-25.6-19.2 25.6-19.2-25.6-19.2 25.6-19.2-25.6-19.2 25.6-19.2-25.6v134.4c0 38.4 38.4 67.2 89.6 67.2 64 0 102.4-32 102.4-67.2zM832 489.6c6.4 0 9.6 3.2 12.8 9.6-6.4 0-12.8 6.4-12.8 12.8s6.4 12.8 12.8 12.8c0 0 3.2 0 3.2 0-3.2 9.6-9.6 19.2-16 19.2-9.6 0-19.2-12.8-19.2-25.6 3.2-16 9.6-28.8 19.2-28.8zM761.6 540.8c-9.6 0-19.2-12.8-19.2-25.6s6.4-25.6 19.2-25.6c6.4 0 9.6 3.2 12.8 9.6-6.4 0-12.8 6.4-12.8 12.8s6.4 12.8 12.8 12.8c0 0 3.2 0 3.2 0 0 9.6-6.4 16-16 16zM86.4 54.4l57.6 156.8c3.2 9.6 16 19.2 25.6 19.2h80v-48c-22.4-9.6-38.4-28.8-38.4-48 0-32 38.4-57.6 89.6-57.6 48 0 89.6 25.6 89.6 57.6 0 19.2-16 35.2-38.4 48v48h512c9.6 0 22.4-9.6 25.6-19.2l57.6-156.8c3.2-6.4 3.2-9.6 3.2-12.8v0 0c0-3.2-3.2-6.4-3.2-6.4l-35.2-67.2h-790.4l-35.2 67.2c-3.2 3.2-3.2 3.2-3.2 6.4v0 0c0 3.2 0 6.4 3.2 12.8zM771.2 105.6c41.6 0 76.8 19.2 76.8 44.8s-35.2 44.8-76.8 44.8c-41.6 0-76.8-19.2-76.8-44.8s35.2-44.8 76.8-44.8zM582.4 67.2c41.6 0 76.8 19.2 76.8 44.8s-35.2 44.8-76.8 44.8c-41.6 0-76.8-19.2-76.8-44.8s32-44.8 76.8-44.8zM582.4 144c28.8 0 51.2-12.8 51.2-25.6s-22.4-25.6-51.2-25.6c-28.8 0-51.2 12.8-51.2 25.6s22.4 25.6 51.2 25.6zM771.2 179.2c28.8 0 51.2-12.8 51.2-25.6s-22.4-25.6-51.2-25.6c-28.8 0-51.2 12.8-51.2 25.6 0 16 25.6 25.6 51.2 25.6z" />
</font>
</defs>
</svg>
